[Login] or [Signup]
Login
Username:
Password:
[Signup]
[Recover Account]


Poll


You must be logged in to view polls



Torrent Details For "Cheat India 2019 HDRip.mp4.mp4"

Cheat India 2019 HDRip.mp4.mp4

Download this torrent | Magnet Download
Health:
Seeds: 142
Leechers: 161
Completed: 53 
Last Checked: 11-02-2019 07:22:15
External Torrent
Update Stats
Download Magnet


Poster


iMDB
Title: Why Cheat India
Year: 2019
Runtime: 121 minutes
Votes: 169
Rating: 8.9/10
Language: Hindi
Director: Soumik Sen
Writing By: Mishkka Shekhawat,
Produced By: Sunny Khanna,Prem Pillai,
Cast:
Emraan Hashmi as
Shreya Dhanwanthary as
Ammar Taalwala as
Trailers:
Cheat India - Movie Trailer
Cheat India - Official Movie Teaser


Watch-Free-HD     Download

Details
Name:Cheat India 2019 HDRip.mp4.mp4
Description:
Cheat India 2019 HDRip.mp4




http://www.imdb.com/title/tt8108208/




[code]
General
Complete name                  : Cheat India 2019 HDRip.mp4.mp4
Format                         : MPEG-4
Format profile                 : Base Media / Version 2
Codec ID                       : mp42 (mp42)
File size                      : 636 MiB
Duration                       : 1 h 56 min
Overall bit rate               : 762 kb/s
Codirector                     : codirector
Production studio              : studio
ContentType                    : Unknown Type


Video
Format                         : AVC
Format/Info                    : Advanced Video Codec
Format profile                 : [email protected]
Format settings, CABAC         : Yes
Format settings, RefFrames     : 1 frame
Format settings, GOP           : M=1, N=25
Codec ID                       : avc1
Codec ID/Info                  : Advanced Video Coding
Duration                       : 1 h 56 min
Bit rate                       : 512 kb/s
Width                          : 640 pixels
Height                         : 360 pixels
Display aspect ratio           : 16:9
Frame rate mode                : Constant
Frame rate                     : 25.000 FPS
Color space                    : YUV
Chroma subsampling             : 4:2:0
Bit depth                      : 8 bits
Scan type                      : Progressive
Bits/(Pixel*Frame)             : 0.089
Stream size                    : 427 MiB (67%)
Language                       : English
Color range                    : Limited
Color primaries                : BT.709
Transfer characteristics       : BT.709
Matrix coefficients            : BT.709

Audio
Format                         : AAC
Format/Info                    : Advanced Audio Codec
Format profile                 : LC
Codec ID                       : 40
Duration                       : 1 h 56 min
Bit rate mode                  : Constant
Bit rate                       : 238 kb/s
Channel(s)                     : 6 channels
Channel positions              : Front: L C R, Side: L R, LFE
Sampling rate                  : 44.1 kHz
Frame rate                     : 43.066 FPS (1024 SPF)
Compression mode               : Lossy
Stream size                    : 198 MiB (31%)
Title                          : Stereo
Language                       : English
Default                        : Yes
Alternate group                : 1

[/code]



















Category:Movies > 720P Bluray
Lang:Hindi
Total Size:636.22 MB
Info Hash:275e671d0c38925cab4b073e4c916f536a04894e
Added By:newlifemasti0
Date Added:11-02-2019 05:47:36
Views:120
Hits:43

Download Torrent

Ratings:Not Yet Rated (Log in to rate it)


Tracker:
udp://tracker.opentrackr.org:1337/announce

This Torrent also has backup trackers
URLSeedersLeechersCompleted
http://vps02.net.orel.ru:80/announce752
http://tracker.torrentyorg.pl/announce410


File List: 


Comments

No comments still posted

Powered by 10 Hamsters v2-svn -|- Page Generated In 1.847668 secs.
-|- RSS FEED
Theme By: Nikkbu
Sitemap