[Login] or [Signup]
Login
Username:
Password:
[Signup]
[Recover Account]


Poll


You must be logged in to view polls



Torrent Details For "Alita Battle Angel 2019 720p HDCAM"

Alita Battle Angel 2019 720p HDCAM

Download this torrent | Magnet Download
Health:
Seeds: 50
Leechers: 29
Completed:
Last Checked: 11-02-2019 04:58:24
External Torrent
Update Stats
Download Magnet


Poster


iMDB
Title: Alita: Battle Angel
Year: 2019
Runtime: 122 minutes
Votes: 3194
Rating: 7.6/10
Language: English, Spanish
Tagline: Her Legend Begins.
Director: Robert Rodriguez
Writing By: James Cameron,Laeta Kalogridis,Robert Rodriguez,Yukito Kishiro,
Produced By: James Cameron,Jon Landau,David Valdes,David Womack,
Music: Junkie XL
Cast:
Rosa Salazar as Alita
Christoph Waltz as Dr. Dyson Ido
Jennifer Connelly as Chiren
Mahershala Ali as Vector
Ed Skrein as Zapan
Jackie Earle Haley as Grewishka
Keean Johnson as Hugo
Jorge Lendeborg Jr. as Tanji
Lana Condor as Koyomi
Idara Victor as Nurse Gerhad
Trailers:
Super Bowl Teaser
Asia Trailer
Official Trailer #3
Official Trailer #2
Official Trailer #1


Watch-Free-HD     Download

Details
Name:Alita Battle Angel 2019 720p HDCAM
Description:
Alita Battle Angel 2019 720p HDCAM[842MB]




http://www.imdb.com/title/tt0437086/




[code]
General
Complete name                  : Alita Battle Angel 2019 720p HDCAM.mp4
Format                         : MPEG-4
Format profile                 : Base Media / Version 2
Codec ID                       : mp42 (mp42)
File size                      : 842 MiB
Duration                       : 2 h 34 min
Overall bit rate               : 764 kb/s
Codirector                     : codirector
Production studio              : studio
ContentType                    : Unknown Type


Video
Format                         : AVC
Format/Info                    : Advanced Video Codec
Format profile                 : [email protected]
Format settings, CABAC         : Yes
Format settings, RefFrames     : 1 frame
Codec ID                       : avc1
Codec ID/Info                  : Advanced Video Coding
Duration                       : 2 h 34 min
Bit rate                       : 508 kb/s
Width                          : 640 pixels
Height                         : 360 pixels
Display aspect ratio           : 16:9
Frame rate mode                : Constant
Frame rate                     : 25.000 FPS
Color space                    : YUV
Chroma subsampling             : 4:2:0
Bit depth                      : 8 bits
Scan type                      : Progressive
Bits/(Pixel*Frame)             : 0.088
Stream size                    : 560 MiB (66%)
Language                       : English
Color range                    : Limited


Audio
Format                         : AAC
Format/Info                    : Advanced Audio Codec
Format profile                 : LC
Codec ID                       : 40
Duration                       : 2 h 34 min
Bit rate mode                  : Constant
Bit rate                       : 243 kb/s
Channel(s)                     : 6 channels
Channel positions              : Front: L C R, Side: L R, LFE
Sampling rate                  : 44.1 kHz
Frame rate                     : 43.066 FPS (1024 SPF)
Compression mode               : Lossy
Stream size                    : 268 MiB (32%)
Title                          : Stereo
Language                       : English
Default                        : Yes
[/code]


















Category:Movies > 720P Bluray
Lang:English  English
Total Size:841.70 MB
Info Hash:2b9ee25ea4e35e2658cb27ad7846753fa3964fec
Added By:newlifemasti0
Date Added:11-02-2019 03:09:15
Views:33
Hits:19

Download Torrent

Ratings:Not Yet Rated (Log in to rate it)


Tracker:
udp://tracker.opentrackr.org:1337/announce

This Torrent also has backup trackers
URLSeedersLeechersCompleted
http://vps02.net.orel.ru:80/announce110
http://tracker.torrentyorg.pl/announce010


File List: 


Comments

No comments still posted

Powered by 10 Hamsters v2-svn -|- Page Generated In 1.729154 secs.
-|- RSS FEED
Theme By: Nikkbu
Sitemap