[Login] or [Signup]
Login
Username:
Password:
[Signup]
[Recover Account]


Poll


You must be logged in to view polls



Torrent Details For "The Change Up 2011 x264 720p Esub BluRay 5.1 Dual Audio English Hindi GOPISAHI"

The Change Up 2011 x264 720p Esub BluRay 5.1 Dual Audio English Hindi GOPISAHI

Download this torrent | Magnet Download
Health:
Seeds: 0
Leechers: 0
Completed:
Last Checked: 09-02-2019 13:56:28
External Torrent
Update Stats
Download Magnet


Poster
No poster


Watch-Free-HD     Download

Details
Name:The Change Up 2011 x264 720p Esub BluRay 5.1 Dual Audio English Hindi GOPISAHI
Description:
 http://www.gopisahi.pw/



The Change Up 2011 x264 720p Esub BluRay 5.1 Dual Audio English Hindi GOPISAHI

Format                         : Matroska
Format version                 : Version 4 / Version 2
File size                      : 882 MiB
Duration                       : 1 h 58 min
Overall bit rate               : 1 043 kb/s
Movie name                     : The Change Up 2011 GOPISAHI

Video
Format                         : AVC
Format/Info                    : Advanced Video Codec
Codec ID                       : V_MPEG4/ISO/AVC
Duration                       : 1 h 58 min
Bit rate                       : 817 kb/s
Width                          : 1 280 pixels
Height                         : 528 pixels
Display aspect ratio           : 2.40:1
Frame rate mode                : Constant
Frame rate                     : 23.976 (24000/1001) FPS
Color space                    : YUV
Chroma subsampling             : 4:2:0
Bit depth                      : 8 bits
Scan type                      : Progressive
Bits/(Pixel*Frame)             : 0.050
Stream size                    : 690 MiB (78%)
Title                          : GOPISAHI
Writing library                : x264 core 116 r2074 2641b9e

Audio #1
Format                         : AAC
Format/Info                    : Advanced Audio Codec
Duration                       : 1 h 58 min
Bit rate                       : 128 kb/s
Channel(s)                     : 6 channels
Channel(s)_Original            : 17 channels
Channel positions              : Front: 15, Side: C, Back: C
Sampling rate                  : 48.0 kHz / 24.0 kHz
Frame rate                     : 23.438 FPS (1024 SPF)
Compression mode               : Lossy
Delay relative to video        : -83 ms
Stream size                    : 108 MiB (12%)
Title                          : WWW.GOPISAHI.PW
Language                       : Hindi

Audio #2
Format                         : AAC
Format/Info                    : Advanced Audio Codec
Duration                       : 1 h 58 min
Bit rate                       : 96.0 kb/s
Channel(s)                     : 6 channels
Channel(s)_Original            : 2 channels / 20 channels / 20 channels
Channel positions              : Front: L R / Front: 5, Side: 11, Back: 4 / Front: 5, Side: 11, Back: 4
Sampling rate                  : 48.0 kHz / 48.0 kHz / 24.0 kHz
Frame rate                     : 23.438 FPS (1024 SPF)
Compression mode               : Lossy
Delay relative to video        : -83 ms
Stream size                    : 81.1 MiB (9%)
Title                          : WWW.GOPISAHI.PW
Language                       : English

Text
Language                       : English



Category:Movies > Hollywood Dub
Lang:Hindi
Total Size:881.60 MB
Info Hash:12e85a5252b80f4445c42e115e73b73a8d228e14
Added By:gopisahi
Date Added:09-02-2019 13:56:28
Views:2
Hits:0

Download Torrent

Ratings:Not Yet Rated (Log in to rate it)


Tracker:
udp://tracker.coppersurfer.tk:6969/announce


File List: 


Comments

No comments still posted

Powered by 10 Hamsters v2-svn -|- Page Generated In 0.373871 secs.
-|- RSS FEED
Theme By: Nikkbu
Sitemap