[Login] or [Signup]
Login
Username:
Password:
[Signup]
[Recover Account]


Poll


You must be logged in to view polls



Torrent Details For "Fanney Khan (2018) HINDI WEBHD 1080p HEVC -AC3-5.1-3GB[MOVCR] "

Fanney Khan (2018) HINDI WEBHD 1080p HEVC -AC3-5.1-3GB[MOVCR]

Download this torrent | Magnet Download
Health:
Seeds: 0
Leechers: 0
Completed:
Last Checked: 12-10-2018 14:29:46
External Torrent
Update Stats
Download Magnet


Poster


iMDB
Imdb Picture Title: Fanney Khan
Year: 2018
Runtime: 130 minutes
Votes: 54
Rating: 6.6/10
Country: India
All Genres: Comedy, Drama, Music
Plot Outline: Fanney Khan is a struggling singer who wants to make his daughter a big name in music world.


Director: Atul Manjrekar
Writing By: Dominique Deruddere,Atul Manjrekar,Hussain Dalal,Hussain Dalal,Jasmeet K. Reen,
Produced By: Kussum Arora,Prerna Arora,Smitha Baliga,P.S. Bharathi,Anil Kapoor,Bhushan Kumar,Krishan Kumar,Rakeysh Omprakash Mehra,Nishant Pitti,Aditya Singh,Rajiv Tandon,
Music: Amit Trivedi
Cast:
Aishwarya Rai Bachchan as
Anil Kapoor as Fanney Khan
Rajkummar Rao as
Divya Dutta as
Pihu Sand as
Anaitha Nair as
Trailers:
Fanney Khan Trailer
Fanney Khan Teaser


Watch-Free-HD     Download

Details
Name:Fanney Khan (2018) HINDI WEBHD 1080p HEVC -AC3-5.1-3GB[MOVCR]
Description:
 

Video
ID                          : 1
Format                      : HEVC
Format/Info                 : High Efficiency Video Coding
Format profile              : Main [email protected]@Main
Codec ID                    : V_MPEGH/ISO/HEVC
Duration                    : 2 h 9 min
Bit rate                    : 2 863 kb/s
Width                       : 1 920 pixels
Height                      : 814 pixels
Display aspect ratio        : 2.35:1
Frame rate mode             : Constant
Frame rate                  : 24.000 FPS
Color space                 : YUV
Chroma subsampling          : 4:2:0
Bit depth                   : 10 bits
Bits/(Pixel*Frame)          : 0.076
Stream size                 : 2.59 GiB (86%)

Audio
ID                          : 2
Format                      : AC-3
Format/Info                 : Audio Coding 3
Codec ID                    : A_AC3
Duration                    : 2 h 9 min
Bit rate mode               : Constant
Bit rate                    : 448 kb/s
Channel(s)                  : 6 channels
Channel positions           : Front: L C R, Side: L R, LFE
Sampling rate               : 48.0 kHz
Frame rate                  : 31.250 FPS (1536 SPF)
Bit depth                   : 16 bits
Compression mode            : Lossy
Stream size                 : 414 MiB (14

 
 
 
 
 
Category:Movies > Bollywood
Lang:Hindi
Total Size:2.99 GB
Info Hash:cac0eac79cac85cf15b167eab589246ef94ec4f9
Added By:Tamilgun
Date Added:12-10-2018 14:29:46
Views:5
Hits:0

Download Torrent

Ratings:Not Yet Rated (Log in to rate it)


Tracker:
udp://tracker.coppersurfer.tk:6969/announce

This Torrent also has backup trackers
URLSeedersLeechersCompleted
http://t.nyaatracker.com:80/announce000
http://tracker.city9x.com:2710/announce000
http://retracker.telecom.by:80/announce000
http://tracker.electro-torrent.pl:80/announce000
http://open.kickasstracker.com:443/announce000
http://retracker.mgts.by:80/announce000
http://fxtt.ru:80/announce000


File List: 


Comments

No comments still posted

Powered by 10 Hamsters v2-svn -|- Page Generated In 0.428557 secs.
-|- RSS FEED
Theme By: Nikkbu