[Login] or [Signup]
Login
Username:
Password:
[Signup]
[Recover Account]


Poll


You must be logged in to view polls



Torrent Details For "Karenjit Kaur [Sunny Leone (2018 - Complete Season 2)] - 1CD - Bengali Web Series Rip[xMp4 - AA..."

Karenjit Kaur [Sunny Leone (2018 - Complete Season 2)] - 1CD - Bengali Web Series Rip[xMp4 - AA...

Download this torrent | Magnet Download
Health:
Seeds: 16
Leechers: 0
Completed:
Last Checked: 12-10-2018 06:59:08
External Torrent
Update Stats
Download Magnet


Poster


Watch-Free-HD     Download

Details
Name:Karenjit Kaur [Sunny Leone (2018 - Complete Season 2)] - 1CD - Bengali Web Series Rip[xMp4 - AA...
Description:
   Karenjit Kaur [Sunny Leone (2018 - Complete Season 2)] -
1CD - Bengali Web Series Rip[xMp4 - AAC3(5.1Ch)]    
 





General
Complete name                            : F:\.mp4
Format                                   : MPEG-4
Format profile                           : Base Media
Codec ID                                 : isom (isom)
File size                                : 701 MiB
Duration                                 : 2 h 21 min

Video
ID                                       : 1
Format                                   : AVC
Format/Info                              : Advanced Video Codec
Format profile                           : [email protected]
Format settings                          : CABAC / 4 Ref Frames
Format settings, CABAC                   : Yes
Format settings, RefFrames               : 4 frames
Codec ID                                 : avc1
Codec ID/Info                            : Advanced Video Coding
Duration                                 : 2 h 21 min
Bit rate                                 : 561 kb/s
Maximum bit rate                         : 2 786 kb/s
Width                                    : 640 pixels
Height                                   : 272 pixels
Display aspect ratio                     : 2.35:1
Frame rate mode                          : Constant
Frame rate                               : 25.000 FPS
Color space                              : YUV
Chroma subsampling                       : 4:2:0
Bit depth                                : 8 bits
Scan type                                : Progressive
Bits/(Pixel*Frame)                       : 0.129
Stream size                              : 568 MiB (81%)

Audio
ID                                       : 2
Format                                   : AAC LC SBR
Commercial name                          : HE-AAC
Format settings                          : Explicit
Codec ID                                 : mp4a-40-2
Duration                                 : 2 h 21 min
Bit rate mode                            : Variable
Bit rate                                 : 128 kb/s
Maximum bit rate                         : 137 kb/s
Channel(s)                               : 6 channels
Channel layout                           : C L R Ls Rs LFE
Sampling rate                            : 48.0 kHz
Stream size                              : 129 MiB (18%)

 Thumbnail  




Category:Movies > Bengali
Lang:Bengali  Bengali
Total Size:700.60 MB
Info Hash:9dc05a7c5c389a8ed813a494551afef3676690dc
Added By:CyberTron
Date Added:12-10-2018 06:52:48
Views:8
Hits:1

Download Torrent

Ratings:Not Yet Rated (Log in to rate it)

  


Tracker:
udp://tracker.trackerfix.com:80/announce


File List: 


Comments

No comments still posted

Powered by 10 Hamsters v2-svn -|- Page Generated In 0.443061 secs.
-|- RSS FEED
Theme By: Nikkbu