[Login] or [Signup]
Login
Username:
Password:
[Signup]
[Recover Account]


Poll


You must be logged in to view polls



Torrent Details For "Fanney Khan (2018) - 2CD - HDRip [x264 - AC3(5.1Ch)]"

Fanney Khan (2018) - 2CD - HDRip [x264 - AC3(5.1Ch)]

Download this torrent | Magnet Download
Health:
Seeds: 12
Leechers: 0
Completed:
Last Checked: 11-10-2018 22:45:44
External Torrent
Update Stats
Download Magnet


Poster


iMDB
Imdb Picture Title: Fanney Khan
Year: 2018
Runtime: 130 minutes
Votes: 54
Rating: 6.6/10
Country: India
All Genres: Comedy, Drama, Music
Plot Outline: Fanney Khan is a struggling singer who wants to make his daughter a big name in music world.


Director: Atul Manjrekar
Writing By: Dominique Deruddere,Atul Manjrekar,Hussain Dalal,Hussain Dalal,Jasmeet K. Reen,
Produced By: Kussum Arora,Prerna Arora,Smitha Baliga,P.S. Bharathi,Anil Kapoor,Bhushan Kumar,Krishan Kumar,Rakeysh Omprakash Mehra,Nishant Pitti,Aditya Singh,Rajiv Tandon,
Music: Amit Trivedi
Cast:
Aishwarya Rai Bachchan as
Anil Kapoor as Fanney Khan
Rajkummar Rao as
Divya Dutta as
Pihu Sand as
Anaitha Nair as
Trailers:
Fanney Khan Trailer
Fanney Khan Teaser


Watch-Free-HD     Download

Details
Name:Fanney Khan (2018) - 2CD - HDRip [x264 - AC3(5.1Ch)]
Description:
   Fanney Khan (2018) - 2CD - HDRip
[x264 - AC3(5.1Ch)]    
 







General
Format                                   : Matroska
Format version                           : Version 4
File size                                : 1.40 GiB
Duration                                 : 2 h 29 min

Video
ID                                       : 1
Format                                   : AVC
Format/Info                              : Advanced Video Codec
Format profile                           : [email protected]
Format settings                          : CABAC / 4 Ref Frames
Format settings, CABAC                   : Yes
Format settings, RefFrames               : 4 frames
Codec ID                                 : V_MPEG4/ISO/AVC
Duration                                 : 2 h 29 min
Bit rate                                 : 1 148 kb/s
Width                                    : 720 pixels
Height                                   : 320 pixels
Display aspect ratio                     : 2.25:1
Frame rate mode                          : Constant
Frame rate                               : 25.000 FPS
Color space                              : YUV
Chroma subsampling                       : 4:2:0
Bit depth                                : 8 bits
Scan type                                : Progressive
Bits/(Pixel*Frame)                       : 0.199
Stream size                              : 1.20 GiB (86%)

Audio
ID                                       : 2
Format                                   : AC-3
Format/Info                              : Audio Coding 3
Commercial name                          : Dolby Digital
Codec ID                                 : A_AC3
Duration                                 : 2 h 29 min
Bit rate mode                            : Constant
Bit rate                                 : 192 kb/s
Channel(s)                               : 6 channels
Channel layout                           : L R C LFE Ls Rs
Sampling rate                            : 48.0 kHz
Stream size                              : 205 MiB (14%)


 Thumbnail  



Category:Movies > Bollywood
Lang:Hindi
Total Size:1.40 GB
Info Hash:7d48bc4fc0108fecd6f6a0c34e59b959a25a5552
Added By:CyberTron
Date Added:11-10-2018 22:42:23
Views:9
Hits:1

Download Torrent

Ratings:Not Yet Rated (Log in to rate it)

  


Tracker:
udp://tracker.trackerfix.com:80/announce


File List: 


Comments

No comments still posted

Powered by 10 Hamsters v2-svn -|- Page Generated In 0.805065 secs.
-|- RSS FEED
Theme By: Nikkbu