[Login] or [Signup]
Login
Username:
Password:
[Signup]
[Recover Account]


Poll


You must be logged in to view polls



Torrent Details For "Daana Paani (2018) PUNJABI 720p WEB-DL UNTOUCHED KartiKing [EXCLUSIVE]"

Daana Paani (2018) PUNJABI 720p WEB-DL UNTOUCHED KartiKing [EXCLUSIVE]

Download this torrent | Magnet Download
Health:
Seeds: 0
Leechers: 0
Completed:
Last Checked: 02-10-2018 17:10:29
External Torrent
Update Stats
Download Magnet


Poster


iMDB
Title: Daana Paani
Year: 2018
Runtime: 105 minutes
Votes: 128
Rating: 7.8/10
Language: Punjabi
All Genres: Family
Director: Taranvir Singh Jagpal
Writing By: Jass Grewal,
Cast:
Jimmy Sheirgill as Mehtaab Singh
Simi Chahal as Basant Kaur
Gurpreet Ghuggi as Master Bahadur Singh
Tarsem Jassar as Army Officer
Nirmal Rishi as Basant Kaur in old age
Raj Dhaliwal as Basant's mother
Kanika Mann as Maghi- Basant's cousin
Siddhi Rathore as Young Basant Kaur
Misha Bajwa as Journalist
Seema Kaushal as Paalo- Basant's Bhua
Trailers:
Daana Paani trailer


Watch-Free-HD     Download

Details
Name:Daana Paani (2018) PUNJABI 720p WEB-DL UNTOUCHED KartiKing [EXCLUSIVE]
Description:
Daana Paani (2018) PUNJABI 720p WEB-DL UNTOUCHED KartiKing [EXCLUSIVE]

 


 

INFO :-

Visit & Support  www.moviezaddiction.website

Mediainfo :-

General
Complete name                            : F:\t\Daana Paani (2018) PUNJABI 720p WEB-DL UNTOUCHED KartiKing.mp4
Format                                   : MPEG-4
Format profile                           : Base Media / Version 2
Codec ID                                 : mp42 (isom/mp42)
File size                                : 815 MiB
Duration                                 : 1 h 45 min
Overall bit rate mode                    : Variable
Overall bit rate                         : 1 080 kb/s
Encoded date                             : UTC 2018-09-30 14:01:24
Tagged date                              : UTC 2018-09-30 14:01:24
gsst                                     : 0
gstd                                     : 6331385

Video
ID                                       : 1
Format                                   : AVC
Format/Info                              : Advanced Video Codec
Format profile                           : [email protected]
Format settings                          : CABAC / 3 Ref Frames
Format settings, CABAC                   : Yes
Format settings, RefFrames               : 3 frames
Codec ID                                 : avc1
Codec ID/Info                            : Advanced Video Coding
Duration                                 : 1 h 45 min
Bit rate                                 : 951 kb/s
Width                                    : 1 280 pixels
Height                                   : 720 pixels
Display aspect ratio                     : 16:9
Frame rate mode                          : Constant
Frame rate                               : 24.000 FPS
Color space                              : YUV
Chroma subsampling                       : 4:2:0
Bit depth                                : 8 bits
Scan type                                : Progressive
Bits/(Pixel*Frame)                       : 0.043
Stream size                              : 718 MiB (88%)
Encoded date                             : UTC 2018-09-30 14:01:24
Tagged date                              : UTC 2018-09-30 14:01:24
Color range                              : Limited
Color primaries                          : BT.709
Transfer characteristics                 : BT.709
Matrix coefficients                      : BT.709
Codec configuration box                  : avcC

Audio
ID                                       : 2
Format                                   : AAC LC
Format/Info                              : Advanced Audio Codec Low Complexity
Codec ID                                 : mp4a-40-2
Duration                                 : 1 h 45 min
Source duration                          : 1 h 45 min
Bit rate mode                            : Variable
Bit rate                                 : 126 kb/s
Channel(s)                               : 2 channels
Channel layout                           : L R
Sampling rate                            : 44.1 kHz
Frame rate                               : 43.066 FPS (1024 SPF)
Compression mode                         : Lossy
Stream size                              : 94.8 MiB (12%)
Source stream size                       : 94.8 MiB (12%)
Language                                 : English
Encoded date                             : UTC 2018-09-30 14:01:24
Tagged date                              : UTC 2018-09-30 14:01:24


 

SCREENSHOTS :-

 
 
 
 


KartiKing

 


Category:Movies > Punjabi
Lang:Punjabi
Total Size:815.03 MB
Info Hash:5554cff738654a3cfde6107d0d91c075950a4ca7
Added By:KartiKing
Date Added:02-10-2018 17:10:29
Views:5
Hits:0

Download Torrent

Ratings:Not Yet Rated (Log in to rate it)


Tracker:
udp://tracker.coppersurfer.tk:6969/announce


File List: 


Comments

No comments still posted

Powered by 10 Hamsters v2-svn -|- Page Generated In 1.058086 secs.
-|- RSS FEED
Theme By: Nikkbu