[Login] or [Signup]
Login
Username:
Password:
[Signup]
[Recover Account]


Poll


You must be logged in to view polls



Torrent Details For "Karwaan (2018) Hindi 720p HQ PRE-DVDRip - x264 - AAC - 1GB - MovCr"

Karwaan (2018) Hindi 720p HQ PRE-DVDRip - x264 - AAC - 1GB - MovCr

Download this torrent | Magnet Download
Health:
Seeds: 0
Leechers: 0
Completed:
Last Checked: 13-09-2018 11:57:19
External Torrent
Update Stats
Download Magnet


Poster


iMDB
Title: Karwaan
Year: 2018
Runtime: 114 minutes
Language: Hindi
All Genres: Comedy, Drama
Director: Akarsh Khurana
Writing By: Bejoy Nambiar,Akarsh Khurana,Adhir Bhat,Hussain Dalal,
Produced By: Prasanthkumar Chandran,Priti Gupta,Pashan Jal,Salona Bains Joshi,Sonia Kanwar,Ankur Khanna,Sanjeevkumar Nair,Ronnie Screwvala,Shubh Shivdasani,
Music: Anurag Saikia
Cast:
Irrfan Khan as Shaukat
Dulquer Salmaan as Avinash
Mithila Palkar as Tanya
Amala Akkineni as Tahira
Akash Khurana as Avinash's Father
Kriti Kharbanda as Rumana
Jan Bostock as Britisher 1
Akash Khurana as Avinash's Father
R. Bhakti Klein as Britisher 2
Richard John Lovatt as Male Backpacker
Trailers:
Karwaan (2018) Trailer


Watch-Free-HD     Download

Details
Name:Karwaan (2018) Hindi 720p HQ PRE-DVDRip - x264 - AAC - 1GB - MovCr
Description:
Our Site   www.movcr.com

Karwaan (2018) Hindi 720p HQ PRE-DVDRip - x264 - AAC - 1GB - MovCr



 http://www.imdb.com/title/tt7919680/

 

General
Unique ID                                : 47264789804118515152893400871895021222 (0x238EDE0DEB58D9ACD3599D1E6093B6A6)
Complete name                            : www.MovCr.com - Karwaan (2018) Hindi 720p HQ PRE-DVDRip - x264 - AAC - 1GB - MovCr.mkv
Format                                   : Matroska
Format version                           : Version 4 / Version 2
File size                                : 1.04 GiB
Duration                                 : 1 h 46 min
Overall bit rate                         : 1 396 kb/s
Movie name                               : www.MovCr.com
Encoded date                             : UTC 2018-09-13 10:39:26
Writing application                      : mkvmerge v26.0.0 ('In The Game') 64-bit
Writing library                          : libebml v1.3.6 + libmatroska v1.4.9

Video
ID                                       : 1
Format                                   : AVC
Format/Info                              : Advanced Video Codec
Format profile                           : [email protected]
Format settings                          : CABAC / 2 Ref Frames
Format settings, CABAC                   : Yes
Format settings, RefFrames               : 2 frames
Format settings, GOP                     : M=1, N=25
Codec ID                                 : V_MPEG4/ISO/AVC
Duration                                 : 1 h 46 min
Bit rate                                 : 1 199 kb/s
Width                                    : 1 280 pixels
Height                                   : 544 pixels
Display aspect ratio                     : 2.35:1
Frame rate mode                          : Constant
Frame rate                               : 23.976 FPS
Color space                              : YUV
Chroma subsampling                       : 4:2:0
Bit depth                                : 8 bits
Scan type                                : Progressive
Bits/(Pixel*Frame)                       : 0.072
Stream size                              : 914 MiB (86%)
Title                                    : www.MovCr.com
Language                                 : Hindi
Default                                  : Yes
Forced                                   : No

Audio
ID                                       : 2
Format                                   : AAC
Format/Info                              : Advanced Audio Codec
Format profile                           : LC
Codec ID                                 : A_AAC-2
Duration                                 : 1 h 46 min
Bit rate                                 : 192 kb/s
Channel(s)                               : 1 channel
Channel positions                        : Front: C
Sampling rate                            : 44.1 kHz
Frame rate                               : 43.066 FPS (1024 SPF)
Compression mode                         : Lossy
Stream size                              : 148 MiB (14%)
Title                                    : www.MovCr.com
Language                                 : Hindi
Default                                  : Yes
Forced                                   : No



                       
Category:Movies > Bollywood
Lang:Hindi
Total Size:1.04 GB
Info Hash:0a54727138cd4567a8b76d3543acc65bb40558bf
Added By:MAZE
Date Added:13-09-2018 11:57:18
Views:10
Hits:0

Download Torrent

Ratings:Not Yet Rated (Log in to rate it)


Tracker:
udp://tracker.coppersurfer.tk:6969/announce


File List: 


Comments

No comments still posted

Powered by 10 Hamsters v2-svn -|- Page Generated In 1.711449 secs.
-|- RSS FEED
Theme By: Nikkbu