[Login] or [Signup]
Login
Username:
Password:
[Signup]
[Recover Account]


Poll


You must be logged in to view polls



Torrent Details For "Inspector Notty K (2018) Bengali Movie - 2CD - DvDScrRip[Mp4 - AAC3(5.1Ch)]"

Inspector Notty K (2018) Bengali Movie - 2CD - DvDScrRip[Mp4 - AAC3(5.1Ch)]

Download this torrent | Magnet Download
Health:
Seeds: 28
Leechers: 149
Completed: 45 
Last Checked: 15-08-2018 08:56:23
External Torrent
Update Stats
Download Magnet


Poster


iMDB
Imdb Picture Title: Inspector Notty K
Year: 2018
Runtime: 147 minutes
Votes: 128
Rating: 6.8/10
Language: Bengali
Country: India
All Genres: Comedy, Romance
Plot Outline: Notty (Jeet) is a Bengal police constable that desperately wants a promotion. Because of this, he accepts Superindent of Police request backed up by Inspector to fly to Italy to retrieve his daughter, Sameera (Nusrat Faria). Notty assumes that this will be an easy task and on reaching Italy starts his mission to bring Sameera back but mistakes Sameera 's friend working in a parlour as Sameera herself but is dismayed when Sameera ends up being a "by the books" officer with the Italian Police Department who has left the parlour sometime back because of the Police Job. Notty in order to bring her back and to avoid deportation back to India helps Sameera to convince her Mother in getting herself roped with a white man in marriage bond whom Sameera likes. These clashes with his irreverent and unsophisticated personality, but soon the two begin to find themselves drawn to one another. The story will be about Notty's desire to become an Inspector and the changing equations of the ...


Director: Ashok Pati
Writing By: Prameet,Anshuman Pratyush,
Produced By: Joydeep Roy Chowdhury,Jeet,Amit Jumrani,Gopal Madnani,Nishpal Singh,
Music: Savvy Gupta Suddho Roy
Cast:
Jeet as Notty K
Nusraat Faria Mazhar as
Kharaj Mukherjee as


Watch-Free-HD     Download

Details
Name:Inspector Notty K (2018) Bengali Movie - 2CD - DvDScrRip[Mp4 - AAC3(5.1Ch)]
Description:
 Inspector Notty K (2018)  Bengali Movie -
2CD - DvDScrRip[Mp4  - AAC3(5.1Ch)]
 





General
Format                                   : MPEG-4
Format profile                           : Base Media
Codec ID                                 : isom (isom)
File size                                : 1.41 GiB
Duration                                 : 2 h 54 min

Video
ID                                       : 1
Format                                   : AVC
Format/Info                              : Advanced Video Codec
Format profile                           : [email protected]
Format settings                          : CABAC / 4 Ref Frames
Format settings, CABAC                   : Yes
Format settings, RefFrames               : 4 frames
Codec ID                                 : avc1
Codec ID/Info                            : Advanced Video Coding
Duration                                 : 2 h 54 min
Bit rate                                 : 1 022 kb/s
Maximum bit rate                         : 2 905 kb/s
Width                                    : 720 pixels
Height                                   : 392 pixels
Display aspect ratio                     : 1.85:1
Frame rate mode                          : Constant
Frame rate                               : 25.000 FPS
Color space                              : YUV
Chroma subsampling                       : 4:2:0
Bit depth                                : 8 bits
Scan type                                : Progressive
Bits/(Pixel*Frame)                       : 0.145
Stream size                              : 1.25 GiB (89%)

Audio
ID                                       : 2
Format                                   : AAC
Format/Info                              : Advanced Audio Codec
Format profile                           : HE-AAC / LC
Format settings                          : Explicit
Codec ID                                 : mp4a-40-2
Duration                                 : 2 h 54 min
Bit rate mode                            : Variable
Bit rate                                 : 128 kb/s
Maximum bit rate                         : 137 kb/s
Channel(s)                               : 6 channels
Channel positions                        : Front: L C R, Side: L R, LFE
Sampling rate                            : 48.0 kHz
Stream size                              : 160 MiB (11%)

Thumbnail




Category:Movies > Bengali
Lang:Bengali  Bengali
Total Size:1.41 GB
Info Hash:be5f8e9f5a1e53a2c7b507a46fcc1419c7e89371
Added By:CyberTron
Date Added:14-08-2018 17:51:30
Views:157
Hits:19

Download Torrent

Ratings:Not Yet Rated (Log in to rate it)

  


Tracker:
udp://9.rarbg.me:2710/announce


File List: 


Comments

No comments still posted

Powered by 10 Hamsters v2-svn -|- Page Generated In 0.416992 secs.
-|- RSS FEED
Theme By: Nikkbu