[Login] or [Signup]
Login
Username:
Password:
[Signup]
[Recover Account]


Poll


You must be logged in to view polls



Torrent Details For "KAYA - The Mystery Unfolds (2018) Bengali Movie - 2CD - Pre DvDScrRip[Mp4 - AAC3(2Ch)]"

KAYA - The Mystery Unfolds (2018) Bengali Movie - 2CD - Pre DvDScrRip[Mp4 - AAC3(2Ch)]

Download this torrent | Magnet Download
Health:
Seeds: 20
Leechers: 0
Completed:
Last Checked: 14-08-2018 16:39:09
External Torrent
Update Stats
Download Magnet


Poster


Watch-Free-HD     Download

Details
Name:KAYA - The Mystery Unfolds (2018) Bengali Movie - 2CD - Pre DvDScrRip[Mp4 - AAC3(2Ch)]
Description:
 KAYA - The Mystery Unfolds (2018) Bengali Movie -
2CD - Pre DvDScrRip[Mp4  - AAC3(2Ch)]
 






General
Format                                   : MPEG-4
Format profile                           : Base Media
Codec ID                                 : isom (isom)
File size                                : 1.41 GiB
Duration                                 : 2 h 24 min

Video
ID                                       : 1
Format                                   : AVC
Format/Info                              : Advanced Video Codec
Format profile                           : [email protected]
Format settings                          : CABAC / 4 Ref Frames
Format settings, CABAC                   : Yes
Format settings, RefFrames               : 4 frames
Codec ID                                 : avc1
Codec ID/Info                            : Advanced Video Coding
Duration                                 : 2 h 24 min
Bit rate                                 : 1 258 kb/s
Maximum bit rate                         : 3 559 kb/s
Width                                    : 720 pixels
Height                                   : 392 pixels
Display aspect ratio                     : 1.85:1
Frame rate mode                          : Constant
Frame rate                               : 25.000 FPS
Color space                              : YUV
Chroma subsampling                       : 4:2:0
Bit depth                                : 8 bits
Scan type                                : Progressive
Bits/(Pixel*Frame)                       : 0.178
Stream size                              : 1.27 GiB (90%)

Audio
ID                                       : 2
Format                                   : AAC
Format/Info                              : Advanced Audio Codec
Format profile                           : LC
Codec ID                                 : mp4a-40-2
Duration                                 : 2 h 24 min
Bit rate mode                            : Variable
Bit rate                                 : 128 kb/s
Maximum bit rate                         : 133 kb/s
Channel(s)                               : 2 channels
Channel positions                        : Front: L R
Sampling rate                            : 48.0 kHz
Stream size                              : 132 MiB (9%)


Thumbnail




Category:Movies > Bengali
Lang:Bengali  Bengali
Total Size:1.41 GB
Info Hash:e0dc3abfca2893e1af657b56bb1c74aa5e853a86
Added By:CyberTron
Date Added:14-08-2018 16:33:35
Views:4
Hits:1

Download Torrent

Ratings:Not Yet Rated (Log in to rate it)

  


Tracker:
udp://9.rarbg.me:2710/announce


File List: 


Comments

No comments still posted

Powered by 10 Hamsters v2-svn -|- Page Generated In 0.852194 secs.
-|- RSS FEED
Theme By: Nikkbu