[Login] or [Signup]
Login
Username:
Password:
[Signup]
[Recover Account]


Poll


You must be logged in to view polls



Torrent Details For "The Gallows (2015) BDRip 1080p x264 [Org BD 5.1 Hindi + DD 5.1 English] ESubs ~ Jitu "

The Gallows (2015) BDRip 1080p x264 [Org BD 5.1 Hindi + DD 5.1 English] ESubs ~ Jitu

Download this torrent | Magnet Download
Health:
Seeds: 0
Leechers: 0
Completed:
Last Checked: 14-08-2018 02:52:46
External Torrent
Update Stats
Download Magnet


Poster


iMDB
Imdb Picture Title: The Gallows
Year: 2015
Runtime: 81 minutes
Votes: 16914
Rating: 4.2/10
Language: English
Country: USA
All Genres: Horror, Thriller
Plot Outline: Twenty years after an accident during a small town high school play results in death, students at the school resurrect the failed stage production in a misguided attempt to honor the anniversary of the tragedy - but ultimately find out that some things are better left alone.


Tagline: On July 10th, Hang With The Cool Kids.
Director: Travis Cluff
Chris Lofing
Writing By: Chris Lofing,Travis Cluff,
Produced By: Jason Blum,Guymon Casady,Travis Cluff,Judi Coleman,Alicia Esraelian,Brian Esraelian,Benjamin Forkner,Walter Hamada,Esther Holland,Debbie Hrdlicka,Steven Hrdlicka,Kathleen Hubka,Steven Imhoff,Brad Jacobson,Clark Jacobson,Paula Jacobson,Chris Lofing,Gabby Revilla Lugo,Dennis Mabry,Irene Mabry,Magdalena Mirelez,Dave Neustadter,James Rodgers,Vicki Rodgers,Couper Samuelson,Dean Schnider,
Music: Zach Lemmon
Cast:
Reese Mishler as Reese Houser
Pfeifer Brown as Pfeifer Ross
Ryan Shoos as Ryan Shoos
Cassidy Gifford as Cassidy Spilker
Travis Cluff as Mr. Schwendiman
Price T. Morgan as Stage Boy
Melissa Bratton as Pfeifer's Mom
Theo Burkhardt as Rick Houser
David Herrara as David the Janitor
Gannon Del Fierro as Gannon
Trailers:
Official Trailer


Watch-Free-HD     Download

Details
Name:The Gallows (2015) BDRip 1080p x264 [Org BD 5.1 Hindi + DD 5.1 English] ESubs ~ Jitu
Description:
The Gallows (2015) 1080p BDRip x264 [Org BD 5.1 Hindi + DD 5.1 English] ESubs ~ Jitu



Org Untouched Bluray DD 5.1 640Kbps Hindi Audio



Format                                   : Matroska
Format version                           : Version 4 / Version 2
File size                                : 35.1 MiB
Duration                                 : 1 min 45 s
Overall bit rate                         : 2 784 kb/s

Video
ID                                       : 1
Format                                   : AVC
Format/Info                              : Advanced Video Codec
Format profile                           : [email protected]
Format settings                          : CABAC / 4 Ref Frames
Format settings, CABAC                   : Yes
Format settings, RefFrames               : 4 frames
Codec ID                                 : V_MPEG4/ISO/AVC
Duration                                 : 1 min 45 s
Bit rate                                 : 1 905 kb/s
Nominal bit rate                         : 2 850 kb/s
Width                                    : 1 920 pixels
Height                                   : 1 080 pixels
Display aspect ratio                     : 16:9
Frame rate mode                          : Constant
Frame rate                               : 23.976 (24000/1001) FPS
Color space                              : YUV
Chroma subsampling                       : 4:2:0
Bit depth                                : 8 bits
Scan type                                : Progressive
Bits/(Pixel*Frame)                       : 0.038
Stream size                              : 24.0 MiB (68%)
Writing library                          : x264 core 146 r2538 121396c
Encoding settings                        : cabac=1 / ref=4 / deblock=1:-1:-1 / analyse=0x3:0x133 / me=umh / subme=7 / psy=1 / psy_rd=1.00:0.00 / mixed_ref=1 / me_range=30 / chroma_me=1 / trellis=1 / 8x8dct=1 / cqm=2 / deadzone=21,11 / fast_pskip=0 / chroma_qp_offset=-2 / threads=12 / lookahead_threads=3 / sliced_threads=0 / slices=4 / nr=0 / decimate=1 / interlaced=0 / bluray_compat=0 / constrained_intra=0 / bframes=5 / b_pyramid=2 / b_adapt=2 / b_bias=0 / direct=3 / weightb=1 / open_gop=0 / weightp=2 / keyint=240 / keyint_min=23 / scenecut=40 / intra_refresh=0 / rc_lookahead=50 / rc=2pass / mbtree=1 / bitrate=2850 / ratetol=1.0 / qcomp=0.60 / qpmin=1 / qpmax=69 / qpstep=4 / cplxblur=20.0 / qblur=0.5 / vbv_maxrate=62500 / vbv_bufsize=78125 / nal_hrd=none / filler=0 / ip_ratio=1.40 / aq=1:1.00
Language                                 : English
Default                                  : Yes
Forced                                   : No

Audio #1
ID                                       : 2
Format                                   : AC-3
Format/Info                              : Audio Coding 3
Codec ID                                 : A_AC3
Duration                                 : 1 min 45 s
Bit rate mode                            : Constant
Bit rate                                 : 640 kb/s
Channel(s)                               : 6 channels
Channel positions                        : Front: L C R, Side: L R, LFE
Sampling rate                            : 48.0 kHz
Frame rate                               : 31.250 FPS (1536 SPF)
Bit depth                                : 16 bits
Compression mode                         : Lossy
Stream size                              : 8.07 MiB (23%)
Title                                    : Org BD 5.1 640Kbps ~ Jitu
Language                                 : Hindi
Service kind                             : Complete Main
Default                                  : Yes
Forced                                   : Yes

Audio #2
ID                                       : 3
Format                                   : AC-3
Format/Info                              : Audio Coding 3
Codec ID                                 : A_AC3
Duration                                 : 1 min 45 s
Bit rate mode                            : Constant
Bit rate                                 : 224 kb/s
Channel(s)                               : 6 channels
Channel positions                        : Front: L C R, Side: L R, LFE
Sampling rate                            : 48.0 kHz
Frame rate                               : 31.250 FPS (1536 SPF)
Bit depth                                : 16 bits
Compression mode                         : Lossy
Stream size                              : 2.82 MiB (8%)
Language                                 : English
Service kind                             : Complete Main
Default                                  : No
Forced                                   : No

Text
ID                                       : 4
Format                                   : PGS
Muxing mode                              : zlib
Codec ID                                 : S_HDMV/PGS
Codec ID/Info                            : Picture based subtitle format used on BDs/HD-DVDs
Duration                                 : 56 s 974 ms
Bit rate                                 : 58.1 kb/s
Count of elements                        : 33
Stream size                              : 404 KiB (1%)
Title                                    : Eng PGS
Language                                 : English
Default                                  : Yes
Forced                                   : Yes



           



Category:Movies > Hollywood Dub
Lang:Hindi
Total Size:2.14 GB
Info Hash:9771bb6b557714f0ba8fc510ce8fd14a6d7bdaa3
Added By:Anonymous
Date Added:14-08-2018 02:52:46
Views:38
Hits:0

Download Torrent

Ratings:Not Yet Rated (Log in to rate it)


Tracker:
udp://tracker.coppersurfer.tk:80/announce

This Torrent also has backup trackers
URLSeedersLeechersCompleted
http://open.acgnxtracker.com/announce000
http://bt.acg.gg:1578/announce000
http://tracker2.itzmx.com:8080/announce000
http://tracker3.itzmx.com:8080/announce000
http://68.64.165.106:2710/announce000
http://retracker.spb.ru/announce000
http://tracker.tfile.co:80/announce000
http://0d.kebhana.mx:443/announce000
http://retracker.spb.ru:80/announce000
http://peersteers.org:80/announce000
http://tracker.torrentsnows.com:443/announce000
http://tracker.tfile.me:80/announce000
http://open.acgnxtracker.com:443/announce000
http://t.nyaatracker.com:80/announce000
http://share.camoe.cn:8080/announce000
http://retracker.telecom.by:80/announce000
http://retracker.mgts.by:80/announce000
http://tracker.city9x.com:2710/announce000


File List: 


Comments

No comments still posted

Powered by 10 Hamsters v2-svn -|- Page Generated In 1.098473 secs.
-|- RSS FEED
Theme By: Nikkbu