[Login] or [Signup]
Login
Username:
Password:
[Signup]
[Recover Account]


Poll


You must be logged in to view polls



Torrent Details For "Tera Intezaar (2017) Hindi HDRip x264 AC3 900MB [HDFilmBoss]"

Tera Intezaar (2017) Hindi HDRip x264 AC3 900MB [HDFilmBoss]

Download this torrent | Magnet Download
Health:
Seeds: 0
Leechers: 0
Completed:
Last Checked: 11-08-2018 07:18:57
External Torrent
Update Stats
Download Magnet


Poster


iMDB
Imdb Picture Title: Tera Intezaar
Year: 2017
Runtime: 108 minutes
Votes: 5
Rating: 4.6/10
Language: Hindi
Country: India
All Genres: Romance, Thriller
Plot Outline: A woman sets out to uncover how her lover went missing.
Director: Raajeev Walia
Writing By: Anwarullah Khan,
Music: Raaj Aashoo
Cast:
Sunny Leone as Raunak
Gauhar Khan as
Arbaaz Khan as
Sudha Chandran as
Arya Babbar as
Bhani Singh as Villain
Salil Ankola as


Watch-Free-HD     Download

Details
Name:Tera Intezaar (2017) Hindi HDRip x264 AC3 900MB [HDFilmBoss]
Description:
General
Complete name                            :Tera Intezaar (2017) Hindi HDRip x264 AC3 900MB [HDFilmBoss.Com].mp4
Format                                   : MPEG-4
Format profile                           : Base Media
Codec ID                                 : isom (isom/iso2/avc1/mp41)
File size                                : 891 MiB
Duration                                 : 1 h 40 min
Overall bit rate                         : 1 239 kb/s
Writing application                      : Lavf58.12.100

Video
ID                                       : 1
Format                                   : AVC
Format/Info                              : Advanced Video Codec
Format profile                           : [email protected]
Format settings                          : CABAC / 4 Ref Frames
Format settings, CABAC                   : Yes
Format settings, RefFrames               : 4 frames
Codec ID                                 : avc1
Codec ID/Info                            : Advanced Video Coding
Duration                                 : 1 h 40 min
Bit rate                                 : 1 099 kb/s
Width                                    : 720 pixels
Height                                   : 304 pixels
Display aspect ratio                     : 2.35:1
Frame rate mode                          : Constant
Frame rate                               : 25.000 FPS
Color space                              : YUV
Chroma subsampling                       : 4:2:0
Bit depth                                : 8 bits
Scan type                                : Progressive
Bits/(Pixel*Frame)                       : 0.201
Stream size                              : 793 MiB (89%)
Writing library                          : x264 core 148 r2643 5c65704

Audio
ID                                       : 2
Format                                   : AAC
Format/Info                              : Advanced Audio Codec
Format profile                           : LC
Codec ID                                 : mp4a-40-2
Duration                                 : 1 h 40 min
Bit rate mode                            : Constant
Bit rate                                 : 128 kb/s
Channel(s)                               : 2 channels
Channel positions                        : Front: L R
Sampling rate                            : 44.1 kHz
Frame rate                               : 43.066 FPS (1024 SPF)
Compression mode                         : Lossy
Stream size                              : 92.0 MiB (10%)
Default                                  : Yes
Alternate group                          : 1



NO ADS Movie





Category:Movies > HDRips
Lang:Hindi
Total Size:890.53 MB
Info Hash:3f1723dcc9a863d8a7777e965dd7df78513ed46b
Added By:HDFilmBoss
Date Added:11-08-2018 07:18:57
Views:403
Hits:30

Download Torrent

Ratings:Not Yet Rated (Log in to rate it)


Tracker:
UDP://TRACKER.ZER0DAY.TO:1337/ANNOUNCE


File List: 


Comments

No comments still posted

Powered by 10 Hamsters v2-svn -|- Page Generated In 0.287082 secs.
-|- RSS FEED
Theme By: Nikkbu