[Login] or [Signup]
Login
Username:
Password:
[Signup]
[Recover Account]


Poll


You must be logged in to view polls



Torrent Details For "Con Air (1997) BDRip 1080p x264 {Dual Audio} [Hindi Org DD 2.0-English DD 5.1] [email protected]"

Con Air (1997) BDRip 1080p x264 {Dual Audio} [Hindi Org DD 2.0-English DD 5.1] [email protected]

Download this torrent | Magnet Download
Health:
Seeds: 0
Leechers: 0
Completed:
Last Checked: 10-08-2018 16:34:32
External Torrent
Update Stats
Download Magnet


Poster
No poster


Watch-Free-HD     Download

Details
Name:Con Air (1997) BDRip 1080p x264 {Dual Audio} [Hindi Org DD 2.0-English DD 5.1] [email protected]
Description:
Con Air (1997) BDRip 1080p x264 {Dual Audio} [Hindi Org DD 2.0-English DD 5.1] [email protected]

 

Org Untouched VCD Hindi Audio By~Hammer~

Never Compromise In Quality


Format                                   : Matroska
Format version                           : Version 4 / Version 2
File size                                : 4.52 GiB
Duration                                 : 1 h 55 min
Overall bit rate                         : 5 606 kb/s
Movie name                               : Con Air (1997) BDRip 1080p x264 {Dual Audio} [Hindi Org DD 2.0-English DD 5.1] [email protected]
Bit rate                                 : 5 000 kb/s
Width                                    : 1 920 pixels
Height                                   : 800 pixels
Display aspect ratio                     : 2.40:1
Frame rate mode                          : Constant
Frame rate                               : 23.976 (24000/1001) FPS
Title                                    : [email protected]
Language                                 : English
Default                                  : Yes
Forced                                   : No

Audio #1
Format                                   : AC-3
Format/Info                              : Audio Coding 3
Codec ID                                 : A_AC3
Duration                                 : 1 h 55 min
Bit rate mode                            : Constant
Bit rate                                 : 224 kb/s
Channel(s)                               : 2 channels
Channel positions                        : Front: L R
Sampling rate                            : 48.0 kHz
Frame rate                               : 31.250 FPS (1536 SPF)
Bit depth                                : 16 bits
Compression mode                         : Lossy
Stream size                              : 185 MiB (4%)
Title                                    : Hindi Org VCD DD 2.0 @224 kbps By~Hammer~
Language                                 : Hindi
Default                                  : Yes
Forced                                   : Yes

Audio #2
Format                                   : AC-3
Format/Info                              : Audio Coding 3
Codec ID                                 : A_AC3
Duration                                 : 1 h 55 min
Bit rate mode                            : Constant
Bit rate                                 : 384 kb/s
Channel(s)                               : 6 channels
Channel positions                        : Front: L C R, Side: L R, LFE
Sampling rate                            : 48.0 kHz
Frame rate                               : 31.250 FPS (1536 SPF)
Bit depth                                : 16 bits
Compression mode                         : Lossy
Stream size                              : 317 MiB (7%)
Title                                    : Eng Org DD 5.1 @384 kbps By~Hammer~
Language                                 : English
Default                                  : No
Forced                                   : No

Text
Format                                   : UTF-8
Codec ID                                 : S_TEXT/UTF8
Codec ID/Info                            : UTF-8 Plain Text
Duration                                 : 1 h 48 min
Bit rate                                 : 61 b/s
Count of elements                        : 1192
Stream size                              : 48.6 KiB (0%)
Title                                    : Eng PGS
Language                                 : English
Default                                  : No
Forced                                   : No


           

Enjoy & Keep Seeding

 
Category:Movies > Bollywood
Lang:Hindi
Total Size:4.52 GB
Info Hash:f9b2e1410aaf727fa7c62f32c788133a8f6f842d
Added By:Hon3y
Date Added:10-08-2018 16:34:32
Views:379
Hits:25

Download Torrent

Ratings:Not Yet Rated (Log in to rate it)


Tracker:
udp://tracker.coppersurfer.tk:6969/announce


File List: 


Comments

No comments still posted

Powered by 10 Hamsters v2-svn -|- Page Generated In 1.084616 secs.
-|- RSS FEED
Theme By: Nikkbu
Sitemap