[Login] or [Signup]
Login
Username:
Password:
[Signup]
[Recover Account]


Poll


You must be logged in to view polls



Torrent Details For "Poseidon.2006.BluRay.720p.x264.{Dual.Audio}.[Hindi Org-English].-.Hon3yHD"

Poseidon.2006.BluRay.720p.x264.{Dual.Audio}.[Hindi Org-English].-.Hon3yHD

Download this torrent | Magnet Download
Health:
Seeds: 0
Leechers: 0
Completed:
Last Checked: 10-08-2018 16:01:56
External Torrent
Update Stats
Download Magnet


Poster


Watch-Free-HD     Download

Details
Name:Poseidon.2006.BluRay.720p.x264.{Dual.Audio}.[Hindi Org-English].-.Hon3yHD
Description:



 http://www.imdb.com/title/tt0409182/

Format                      : Matroska
Format version              : Version 4 / Version 2
File size                   : 1.00 GiB
Duration                    : 1 h 38 min
Overall bit rate            : 1 459 kb/s

Video
ID                          : 1
Format                      : AVC
Format/Info                 : Advanced Video Codec
Format profile              : [email protected]
Format settings             : CABAC / 8 Ref Frames
Format settings, CABAC      : Yes
Format settings, ReFrames   : 8 frames
Codec ID                    : V_MPEG4/ISO/AVC
Duration                    : 1 h 38 min
Bit rate                    : 1 200 kb/s
Width                       : 1 280 pixels
Height                      : 530 pixels
Display aspect ratio        : 2.40:1
Original display aspect rat : 2.40:1
Frame rate mode             : Constant
Frame rate                  : 23.976 (24000/1001) FPS

Audio #1
ID                          : 2
Format                      : AAC
Format/Info                 : Advanced Audio Codec
Format profile              : LC
Codec ID                    : A_AAC-2
Duration                    : 1 h 38 min
Bit rate                    : 128 kb/s
Channel(s)                  : 2 channels
Channel positions           : Front: L R
Sampling rate               : 48.0 kHz
Frame rate                  : 46.875 FPS (1024 SPF)
Compression mode            : Lossy
Delay relative to video     : -21 ms
Stream size                 : 90.1 MiB (9%)
Title                       : Stereo
Language                    : Hindi

Audio #2
ID                          : 3
Format                      : AAC
Format/Info                 : Advanced Audio Codec
Format profile              : LC
Codec ID                    : A_AAC-2
Duration                    : 1 h 38 min
Bit rate                    : 128 kb/s
Channel(s)                  : 2 channels
Channel positions           : Front: L R
Sampling rate               : 48.0 kHz
Frame rate                  : 46.875 FPS (1024 SPF)
Compression mode            : Lossy
Delay relative to video     : -21 ms
Stream size                 : 90.0 MiB (9%)
Title                       : Stereo
Language                    : English

 

       
Category:Movies > Bollywood
Lang:Hindi
Total Size:1.00 GB
Info Hash:985382706961eeb49a50074368e708615850e7f3
Added By:Hon3y
Date Added:10-08-2018 16:01:56
Views:65
Hits:1

Download Torrent

Ratings:Not Yet Rated (Log in to rate it)


Tracker:
udp://tracker.coppersurfer.tk:6969/announce


File List: 


Comments

No comments still posted

Powered by 10 Hamsters v2-svn -|- Page Generated In 0.567534 secs.
-|- RSS FEED
Theme By: Nikkbu