[Login] or [Signup]
Login
Username:
Password:
[Signup]
[Recover Account]


Poll


You must be logged in to view polls



Torrent Details For "I, Me aur Main 2013 Hindi 720p Blu-Ray x264 AAC { TaRa }.mkv"

I, Me aur Main 2013 Hindi 720p Blu-Ray x264 AAC { TaRa }.mkv

Download this torrent | Magnet Download
Health:
Seeds: 665
Leechers: 559
Completed: 1,587 
Last Checked: 10-08-2018 12:45:59
External Torrent
Update Stats
Download Magnet


Poster


iMDB
Imdb Picture Title: I, Me aur Main
Year: 2013
Runtime: 108 minutes
Votes: 1625
Rating: 4.6/10
Language: Hindi
Country: India
All Genres: Comedy, Drama, Musical, Romance
Plot Outline: As Ishaan, a music producer who has commitment issues with the women in his life, feels a connection with Gauri, his next-door neighbor, he begins to learn the importance of relationships.


Director: Kapil Sharma
Writing By: Devika Bhagat,
Produced By: Goldie Behl,Shrishti Behl,Sada Bhuvad,Niraj Kothari,Sanjeev Lamba,Anup Poddar,
Music: Pritam Chakraborty Sachin Sanghvi Jigar Saraiya
Cast:
John Abraham as Ishaan Sabharwal
Chitrangda Singh as Anushka Lal
Prachi Desai as Gauri Dandekar
Mini Mathur as Shivani
Zarina Wahab as Nisha Sabharwal
Sheena Shahabadi as Amala
Mukul Chadda as Adil
Raima Sen as Beena Chandok
Yugesh Anil as Ishaan Friend
Krish Chatterji as Rishi
Trailers:
Theatrical Version


Watch-Free-HD     Download

Details
Name:I, Me aur Main 2013 Hindi 720p Blu-Ray x264 AAC { TaRa }.mkv
Description:

I, Me aur Main 2013 Hindi 720p Blu-Ray x264 AAC { TaRa }.mkv
 

===================================================================
General
Complete name               : I, Me aur Main 2013 Hindi 720p Blu-Ray x264 AAC { TaRa }.mkv
Format                      : Matroska
Format version              : Version 4 / Version 2
File size                   : 800 MiB
Duration                    : 1h 45mn
Overall bit rate            : 1 064 Kbps
===================================================================
Video
ID                          : 1
Format                      : AVC
Format/Info                 : Advanced Video Codec
Format profile              : [email protected]
Format settings, CABAC      : Yes
Format settings, ReFrames   : 12 frames
Codec ID                    : V_MPEG4/ISO/AVC
Duration                    : 1h 45mn
Bit rate                    : 998 Kbps
Width                       : 1 280 pixels
Height                      : 544 pixels
Display aspect ratio        : 2.35:1
Frame rate mode             : Constant
Frame rate                  : 23.976 (24000/1001) fps
Color space                 : YUV
Chroma subsampling          : 4:2:0
Bit depth                   : 8 bits
Scan type                   : Progressive
Bits/(Pixel*Frame)          : 0.060
Stream size                 : 750 MiB (94%)
Title                       : .....::::: TaRa :::::......
Language                    : Hindi
Default                     : Yes
Forced                      : No
===================================================================
Audio
ID                          : 2
Format                      : AAC
Format/Info                 : Advanced Audio Codec
Format profile              : LC
Codec ID                    : A_AAC
Duration                    : 1h 45mn
Bit rate                    : 64.0 Kbps
Channel(s)                  : 2 channels
Channel positions           : Front: L R
Sampling rate               : 44.1 KHz
Frame rate                  : 43.066 fps (1024 spf)
Compression mode            : Lossy
Delay relative to video     : 10ms
Stream size                 : 48.1 MiB (6%)
Title                       : .....::::: TaRa :::::......
Language                    : Hindi
Default                     : Yes
Forced                      : No
===================================================================


 
 
 
 
 
 
 
 
 
 
 
 
 
 
 
 
 
 
 
 
 
 
 












 



Category:Movies > Bollywood
Lang:Hindi
Total Size:799.97 MB
Info Hash:025c83df60675d544a24f70bff308134f324c95d
Added By:SkTaRa
Date Added:09-08-2018 19:05:57
Views:597
Hits:127

Download Torrent

Ratings:Not Yet Rated (Log in to rate it)

  


Tracker:
udp://tracker.coppersurfer.tk:6969/announce


File List: 


Comments

No comments still posted

Powered by 10 Hamsters v2-svn -|- Page Generated In 4.148183 secs.
-|- RSS FEED
Theme By: Nikkbu