[Login] or [Signup]
Login
Username:
Password:
[Signup]
[Recover Account]


Poll


You must be logged in to view polls



Torrent Details For "Love & Bananas An Elephant Story(2018) 720p Esub WEBDL 2.0-DTS Audio-HDprintMovies"

Love & Bananas An Elephant Story(2018) 720p Esub WEBDL 2.0-DTS Audio-HDprintMovies

Download this torrent | Magnet Download
Health:
Seeds: 0
Leechers: 0
Completed:
Last Checked: 09-08-2018 18:24:00
External Torrent
Update Stats
Download Magnet


Poster


iMDB
Imdb Picture Title: Love & Bananas
Year: 2018
Runtime: 77 minutes
Votes: 78
Rating: 5.9/10
Language: English
Country: Thailand, Cambodia, USA
All Genres: Documentary, Action, Adventure, Drama
Plot Outline: Ashley Bell and a team of elephant rescuers led by world renowned Asian elephant conservationist Lek Chailert, embark on a daring 48-hour mission across Thailand to rescue a 70-year old captive blind Asian elephant and bring her to freedom.


Director: Ashley Bell
Writing By: Ashley Bell,John Michael McCarthy III,Fernanda Rossi,
Produced By: Steve Bannerman,Ashley Bell,Victoria Carroll,David Casselman,Ross M. Dinerstein,Samantha Housman,Ian Hultquist,Sofia Hultquist,Jim Jensvold,Leandro Marini,John Michael McCarthy III,Roddy Tabatabai,Jason Yeung,
Music: Ian Hultquist Sofia Hultquist
Cast:
Ashley Bell as
Lek Chailert as Herself
Noi Na as Herself


Watch-Free-HD     Download

Details
Name:Love & Bananas An Elephant Story(2018) 720p Esub WEBDL 2.0-DTS Audio-HDprintMovies
Description:




General
Unique ID                   : 120025877164603172442280305269618905002 (0x5A4C24A1C29EE89FF3F664FF09760FAA)
Complete name               : Love & Bananas An Elephant Story(2018) 720p WEBDL 2.0-DTS Audio-HDprintMovies.mkv
Format                      : Matroska
Format version              : Version 1
File size                   : 2.61 GiB
Duration                    : 1 h 12 min
Overall bit rate mode       : Variable
Overall bit rate            : 5 174 kb/s

Video
ID                          : 1
Format                      : AVC
Format/Info                 : Advanced Video Codec
Format profile              : [email protected]
Format settings             : CABAC / 3 Ref Frames
Format settings, CABAC      : Yes
Format settings, ReFrames   : 3 frames
Codec ID                    : V_MPEG4/ISO/AVC
Duration                    : 1 h 12 min
Bit rate mode               : Variable
Bit rate                    : 4 051 kb/s
Maximum bit rate            : 4 180 kb/s
Width                       : 1 368 pixels
Height                      : 768 pixels
Display aspect ratio        : 16:9
Frame rate mode             : Constant
Frame rate                  : 30.000 FPS
Color space                 : YUV
Chroma subsampling          : 4:2:0
Bit depth                   : 8 bits
Scan type                   : Progressive
Bits/(Pixel*Frame)          : 0.129
Stream size                 : 2.05 GiB (78%)
Language                    : English
Default                     : Yes
Forced                      : No

Audio #1
ID                          : 2
Format                      : DTS
Format/Info                 : Digital Theater Systems
Codec ID                    : A_DTS
Duration                    : 1 h 12 min
Bit rate mode               : Constant
Bit rate                    : 510 kb/s
Channel(s)                  : 2 channels
Channel positions           : Front: L R
Sampling rate               : 48.0 kHz
Frame rate                  : 46.875 FPS (1024 SPF)
Bit depth                   : 24 bits
Compression mode            : Lossy
Stream size                 : 264 MiB (10%)
Language                    : English
Default                     : Yes
Forced                      : No













Category:Movies > WEB-HD
Lang:English  English
Total Size:2.61 GB
Info Hash:6b978d6c1dcd3290e447e4af1da22c8775675d6b
Added By:Unknown
Date Added:09-08-2018 18:24:00
Views:160
Hits:0

Download Torrent

Ratings:Not Yet Rated (Log in to rate it)


Tracker:
udp://tracker.coppersurfer.tk:6969/announce


File List: 


Comments

No comments still posted

Powered by 10 Hamsters v2-svn -|- Page Generated In 3.878778 secs.
-|- RSS FEED
Theme By: Nikkbu