[Login] or [Signup]
Login
Username:
Password:
[Signup]
[Recover Account]


Poll


You must be logged in to view polls



Torrent Details For "Baaghi 2 2018 Hindi 720p HDRip x264 AAC { TaRa }.mkv"

Baaghi 2 2018 Hindi 720p HDRip x264 AAC { TaRa }.mkv

Download this torrent | Magnet Download
Health:
Seeds: 231
Leechers: 152
Completed: 419 
Last Checked: 09-08-2018 04:25:28
External Torrent
Update Stats
Download Magnet


Poster


iMDB
Imdb Picture Original Title: Baaghi 2
Title: Baaghi 2: Le rebelle
Year: 2018
Runtime: 137 minutes
Votes: 371
Rating: 5.7/10
Language: Hindi
Country: India
All Genres: Action, Thriller
Plot Outline: Ronny, is hired by ex-lover Neha, to track down her daughter Riya, who has been kidnapped.
Director: Ahmed Khan
Writing By: Hussain Dalal,Abbas Hirapurwala,Jojo Khan,Niraj Kumar Mishra,Sajid Nadiadwala,
Produced By: Bharat Bohra,Dipti Jindal,Rakesh Madhotra,Sajid Nadiadwala,Vikram Raazdan,Vijay Singh,
Music: Mithoon Julius Packiam
Cast:
Disha Patani as Neha
Tiger Shroff as Ronny
Randeep Hooda as
Manoj Bajpayee as
Lakshmi Manchu as
Prateik as
Paras Arora as
Darshan Kumar as
Shifuji Shaurya Bharadwaj as
Indraneel Bhattacharya as
Trailers:
Baaghi 2 Trailer


Watch-Free-HD     Download

Details
Name:Baaghi 2 2018 Hindi 720p HDRip x264 AAC { TaRa }.mkv
Description:

Baaghi 2 2018 Hindi 720p HDRip x264 AAC { TaRa }.mkv
 

===================================================================
General
Complete name               : Baaghi 2 2018 Hindi 720p HDRip x264 AAC { TaRa }.mkv
Format                      : Matroska
Format version              : Version 4 / Version 2
File size                   : 1.20 GiB
Duration                    : 2h 21mn
Overall bit rate            : 1 211 Kbps
===================================================================
Video
ID                          : 1
Format                      : AVC
Format/Info                 : Advanced Video Codec
Format profile              : [email protected]
Format settings, CABAC      : Yes
Format settings, ReFrames   : 5 frames
Codec ID                    : V_MPEG4/ISO/AVC
Duration                    : 2h 21mn
Bit rate                    : 1 088 Kbps
Width                       : 1 280 pixels
Height                      : 544 pixels
Display aspect ratio        : 2.35:1
Frame rate mode             : Constant
Frame rate                  : 29.970 (30000/1001) fps
Color space                 : YUV
Chroma subsampling          : 4:2:0
Bit depth                   : 8 bits
Scan type                   : Progressive
Bits/(Pixel*Frame)          : 0.052
Stream size                 : 1.07 GiB (89%)
Title                       : .....::::: TaRa :::::.....
Language                    : Hindi
Default                     : Yes
Forced                      : No
===================================================================
Audio
ID                          : 2
Format                      : AAC
Format/Info                 : Advanced Audio Codec
Format profile              : LC
Codec ID                    : A_AAC
Duration                    : 2h 21mn
Bit rate                    : 126 Kbps
Channel(s)                  : 2 channels
Channel positions           : Front: L R
Sampling rate               : 44.1 KHz
Frame rate                  : 43.066 fps (1024 spf)
Compression mode            : Lossy
Delay relative to video     : -43ms
Stream size                 : 127 MiB (10%)
Title                       : .....::::: TaRa :::::.....
Language                    : Hindi
Default                     : Yes
Forced                      : No
===================================================================


 
 
 
 
 
 
 
 
 
 
 
 
 
 
 
 












 



Category:Movies > Bollywood
Lang:Hindi
Total Size:1.20 GB
Info Hash:f57e91d2335da92028060870c30c20cc5d6ac928
Added By:SkTaRa
Date Added:08-08-2018 16:27:51
Views:311
Hits:65

Download Torrent

Ratings:Not Yet Rated (Log in to rate it)

  


Tracker:
udp://tracker.coppersurfer.tk:6969/announce


File List: 


Comments

<< Previous      Next >>
1 - 1

[Report] Posted: 08-08-2018 at 17:22:24
Dishalover



Uploaded: 0.00 B
Downloaded: 0.00 B
Ratio: ---

The HDRip's are already Release bro.... 😈😈😈

1 - 1
<< Previous      Next >>


Powered by 10 Hamsters v2-svn -|- Page Generated In 3.297603 secs.
-|- RSS FEED
Theme By: Nikkbu