[Login] or [Signup]
Login
Username:
Password:
[Signup]
[Recover Account]


Poll


You must be logged in to view polls



Torrent Details For "Baaghi 2 (2018) DVDRip 720p Hindi H.264 AAC - LatestHDMovies Exclusive"

Baaghi 2 (2018) DVDRip 720p Hindi H.264 AAC - LatestHDMovies Exclusive

Download this torrent | Magnet Download
Health:
Seeds: 2
Leechers: 215
Completed:
Last Checked: 08-08-2018 12:25:01
External Torrent
Update Stats
Download Magnet


Poster


iMDB
Imdb Picture Original Title: Baaghi 2
Title: Baaghi 2: Le rebelle
Year: 2018
Runtime: 137 minutes
Votes: 371
Rating: 5.7/10
Language: Hindi
Country: India
All Genres: Action, Thriller
Plot Outline: Ronny, is hired by ex-lover Neha, to track down her daughter Riya, who has been kidnapped.
Director: Ahmed Khan
Writing By: Hussain Dalal,Abbas Hirapurwala,Jojo Khan,Niraj Kumar Mishra,Sajid Nadiadwala,
Produced By: Bharat Bohra,Dipti Jindal,Rakesh Madhotra,Sajid Nadiadwala,Vikram Raazdan,Vijay Singh,
Music: Mithoon Julius Packiam
Cast:
Disha Patani as Neha
Tiger Shroff as Ronny
Randeep Hooda as
Manoj Bajpayee as
Lakshmi Manchu as
Prateik as
Paras Arora as
Darshan Kumar as
Shifuji Shaurya Bharadwaj as
Indraneel Bhattacharya as
Trailers:
Baaghi 2 Trailer


Watch-Free-HD     Download

Details
Name:Baaghi 2 (2018) DVDRip 720p Hindi H.264 AAC - LatestHDMovies Exclusive
Description:



DIRECT DOWNLOAD & WATCH ONLINE !
VISIT = http://latesthdmovies.org/baa...thdmovies-exclusive/


[[SAMPLE]]
 http://oload.stream/f/tHH5MW_...estHDMovies.Org-.mp4

Quote:

[center]

General
Unique ID                   : 286504826184598886625022029104255872327 (0xD78AD2888BF73AD93D492F0604C82D47)
Complete name               : C:\Users\SHAHID\Downloads\Video\Baaghi 2 (2018) DVDRip 720p Hindi H.264 AAC - LatestHDMovies Exclusive.mkv
Format                      : Matroska
Format version              : Version 4 / Version 2
File size                   : 1.20 GiB
Duration                    : 2 h 21 min
Overall bit rate            : 1 214 kb/s
Movie name                  : http://LatestHDMovies.Org
Encoded date                : UTC 2018-08-08 04:19:28
Writing application         : mkvmerge v24.0.0 ('Beyond The Pale') 32-bit
Writing library             : libebml v1.3.6 + libmatroska v1.4.9
Cover                       : Yes
Attachments                 : Cover.jpg

Video
ID                          : 1
Format                      : AVC
Format/Info                 : Advanced Video Codec
Format profile              : [email protected]
Format settings             : CABAC / 5 Ref Frames
Format settings, CABAC      : Yes
Format settings, ReFrames   : 5 frames
Codec ID                    : V_MPEG4/ISO/AVC
Duration                    : 2 h 21 min
Bit rate                    : 1 088 kb/s
Width                       : 1 280 pixels
Height                      : 544 pixels
Display aspect ratio        : 2.35:1
Frame rate mode             : Constant
Frame rate                  : 29.970 (30000/1001) FPS
Color space                 : YUV
Chroma subsampling          : 4:2:0
Bit depth                   : 8 bits
Scan type                   : Progressive
Bits/(Pixel*Frame)          : 0.052
Stream size                 : 1.07 GiB (89%)
Title                       : http://LatestHDMovies.Org
Writing library             : x264 core 148 r2643 5c65704
Encoding settings           : cabac=1 / ref=5 / deblock=1:0:0 / analyse=0x3:0x113 / me=hex / subme=7 / psy=1 / psy_rd=1.00:0.00 / mixed_ref=1 / me_range=16 / chroma_me=1 / trellis=1 / 8x8dct=1 / cqm=0 / deadzone=21,11 / fast_pskip=1 / chroma_qp_offset=-2 / threads=8 / lookahead_threads=8 / sliced_threads=1 / slices=8 / nr=0 / decimate=1 / interlaced=0 / bluray_compat=0 / constrained_intra=0 / bframes=0 / weightp=2 / keyint=250 / keyint_min=25 / scenecut=40 / intra_refresh=0 / rc=abr / mbtree=0 / bitrate=1088 / ratetol=1.0 / qcomp=0.60 / qpmin=0 / qpmax=69 / qpstep=4 / ip_ratio=1.40 / aq=1:1.00
Default                     : Yes
Forced                      : No

Audio
ID                          : 2
Format                      : AAC
Format/Info                 : Advanced Audio Codec
Format profile              : LC
Codec ID                    : A_AAC-2
Duration                    : 2 h 21 min
Bit rate                    : 128 kb/s
Channel(s)                  : 2 channels
Channel positions           : Front: L R
Sampling rate               : 48.0 kHz
Frame rate                  : 46.875 FPS (1024 SPF)
Compression mode            : Lossy
Delay relative to video     : -43 ms
Stream size                 : 130 MiB (11%)
Title                       : http://LatestHDMovies.Org
Language                    : Hindi
Default                     : Yes
Forced                      : No

 
                       
[/center]
Category:Movies > Bollywood
Lang:Hindi
Total Size:1.20 GB
Info Hash:04e3b381ef50461de921853becb836f7e5326f3e
Added By:LatestHDMovies
Date Added:08-08-2018 11:28:51
Views:190
Hits:20

Download Torrent

Ratings:Not Yet Rated (Log in to rate it)


Tracker:
udp://tracker.coppersurfer.tk:6969/announce


File List: 


Comments

No comments still posted

Powered by 10 Hamsters v2-svn -|- Page Generated In 1.267427 secs.
-|- RSS FEED
Theme By: Nikkbu