[Login] or [Signup]
Login
Username:
Password:
[Signup]
[Recover Account]


Poll


You must be logged in to view polls



Torrent Details For "Show Dogs (2018) 720p WEB-DL MkvCage (AriaMovie)"

Show Dogs (2018) 720p WEB-DL MkvCage (AriaMovie)

Download this torrent | Magnet Download
Health:
Seeds: 5
Leechers: 2
Completed:
Last Checked: 08-08-2018 10:29:50
External Torrent
Update Stats
Download Magnet


Poster


iMDB
Imdb Picture Title: Show Dogs
Year: 2018
Runtime: 92 minutes
Votes: 1950
Rating: 3.1/10
Language: English
Country: UK, USA
All Genres: Adventure, Comedy, Family
Plot Outline: Max, a macho, solitary Rottweiler police dog is ordered to go undercover as a primped show dog in a prestigious Dog Show, along with his human partner, to avert a disaster from happening.


Tagline: Unleashed and Undercover
Director: Raja Gosnell
Writing By: Max Botkin,Marc Hyman,
Produced By: Max Botkin,Nik Bower,Raja Gosnell,Peter Hampden,Scott Lambert,Norman Merry,Deepak Nayar,Robert Norris,Tom Ortenberg,Paul Sarony,Yu-Fai Suen,Philip von Alvensleben,David Womack,
Music: Heitor Pereira
Cast:
Natasha Lyonne as Mattie
Stanley Tucci as Philippe
Alan Cumming as Dante
Will Arnett as Frank
Shaquille O'Neal as Karma
RuPaul as Persephone
Gabriel Iglesias as Sprinkles
Ludacris as Max
Delia Sheppard as Socialite Faye
Ronni Ancona as Poopsie Chow's Owner
Trailers:
Show Dogs
Show Dogs
Trailer 2
Show Dogs
Trailer


Watch-Free-HD     Download

Details
Name:Show Dogs (2018) 720p WEB-DL MkvCage (AriaMovie)
Description:


General
Unique ID                                : 325248848732093402134585079921652554870 (0xF4B0A653B9EC0F19D2657B46D1E85C76)
Complete name                            : Show Dogs (2018) 720p WEB-DL MkvCage (AriaMovie).mkv
Format                                   : Matroska
Format version                           : Version 4 / Version 2
File size                                : 703 MiB
Duration                                 : 1 h 30 min
Overall bit rate                         : 1 084 kb/s
Movie name                               : Show.Dogs.2018.720p.WEB-DL.MkvCage.ws
Encoded date                             : UTC 2018-08-07 06:03:45
Writing application                      : mkvmerge v23.0.0 ('The Bride Said No') 64-bit
Writing library                          : libebml v1.3.6 + libmatroska v1.4.9

Video
ID                                       : 3
Format                                   : AVC
Format/Info                              : Advanced Video Codec
Format profile                           : [email protected]
Format settings                          : CABAC / 5 Ref Frames
Format settings, CABAC                   : Yes
Format settings, RefFrames               : 5 frames
Codec ID                                 : V_MPEG4/ISO/AVC
Duration                                 : 1 h 30 min
Bit rate                                 : 1 018 kb/s
Width                                    : 1 280 pixels
Height                                   : 690 pixels
Display aspect ratio                     : 1.85:1
Frame rate mode                          : Constant
Frame rate                               : 23.976 (24000/1001) FPS
Color space                              : YUV
Chroma subsampling                       : 4:2:0
Bit depth                                : 8 bits
Scan type                                : Progressive
Bits/(Pixel*Frame)                       : 0.048
Stream size                              : 660 MiB (94%)
Writing library                          : x264 core 155 r2893 b00bcaf
Encoding settings                        : cabac=1 / ref=5 / deblock=1:0:0 / analyse=0x3:0x113 / me=hex / subme=8 / psy=1 / psy_rd=1.00:0.00 / mixed_ref=1 / me_range=16 / chroma_me=1 / trellis=2 / 8x8dct=1 / cqm=0 / deadzone=21,11 / fast_pskip=1 / chroma_qp_offset=-2 / threads=22 / lookahead_threads=3 / sliced_threads=0 / nr=0 / decimate=1 / interlaced=0 / bluray_compat=0 / constrained_intra=0 / bframes=3 / b_pyramid=2 / b_adapt=1 / b_bias=0 / direct=3 / weightb=1 / open_gop=0 / weightp=2 / keyint=240 / keyint_min=24 / scenecut=40 / intra_refresh=0 / rc_lookahead=50 / rc=2pass / mbtree=1 / bitrate=1018 / ratetol=1.0 / qcomp=0.60 / qpmin=0 / qpmax=69 / qpstep=4 / cplxblur=20.0 / qblur=0.5 / vbv_maxrate=62500 / vbv_bufsize=78125 / nal_hrd=none / filler=0 / ip_ratio=1.40 / aq=1:1.00
Default                                  : Yes
Forced                                   : No
Color range                              : Limited
Color primaries                          : BT.709
Transfer characteristics                 : BT.709
Matrix coefficients                      : BT.709

Audio
ID                                       : 1
Format                                   : AAC
Format/Info                              : Advanced Audio Codec
Format profile                           : HE-AAC / LC
Format settings                          : Explicit
Codec ID                                 : A_AAC-2
Duration                                 : 1 h 30 min
Bit rate                                 : 64.0 kb/s
Channel(s)                               : 2 channels
Channel positions                        : Front: L R
Sampling rate                            : 48.0 kHz / 24.0 kHz
Frame rate                               : 23.438 FPS (1024 SPF)
Compression mode                         : Lossy
Delay relative to video                  : 31 ms
Stream size                              : 41.5 MiB (6%)
Language                                 : English
Default                                  : Yes
Forced                                   : No

Text
ID                                       : 2
Format                                   : UTF-8
Codec ID                                 : S_TEXT/UTF8
Codec ID/Info                            : UTF-8 Plain Text
Duration                                 : 1 h 24 min
Bit rate                                 : 91 b/s
Count of elements                        : 1747
Stream size                              : 56.8 KiB (0%)
Language                                 : English
Default                                  : Yes
Forced                                   : No

Menu
00:00:00.000                             : :Chapter 1
00:08:56.745                             : :Chapter 2
00:17:56.117                             : :Chapter 3
00:26:03.562                             : :Chapter 4
00:34:23.812                             : :Chapter 5
00:45:00.531                             : :Chapter 6
00:54:06.827                             : :Chapter 7
01:02:54.187                             : :Chapter 8
01:13:13.681                             : :Chapter 9
01:23:29.338                             : :Chapter 10

Category:Movies > WEB-HD
Lang:English  English
Total Size:702.76 MB
Info Hash:6c9061c2873b06d62c2242e3fb5a81a91b643052
Added By:satan2000
Date Added:07-08-2018 14:19:27
Views:162
Hits:4

Download Torrent

Ratings:Not Yet Rated (Log in to rate it)


Tracker:
udp://tracker.coppersurfer.tk:6969/announce


File List: 


Comments

No comments still posted

Powered by 10 Hamsters v2-svn -|- Page Generated In 0.114205 secs.
-|- RSS FEED
Theme By: Nikkbu