[Login] or [Signup]
Login
Username:
Password:
[Signup]
[Recover Account]


Poll


You must be logged in to view polls



Torrent Details For "Wildling 2018 1080p BluRay x264 DTS [MW]"

Wildling 2018 1080p BluRay x264 DTS [MW]

Download this torrent | Magnet Download
Health:
Seeds: 87
Leechers: 160
Completed: 142 
Last Checked: 06-08-2018 12:29:14
External Torrent
Update Stats
Download Magnet


Poster
No poster


Watch-Free-HD     Download

Details
Name:Wildling 2018 1080p BluRay x264 DTS [MW]
Description:

 


General
Format                                   : Matroska
Format version                           : Version 4 / Version 2
File size                                : 2.35 GiB
Duration                                 : 1 h 32 min
Overall bit rate                         : 3 640 kb/s

Video
ID                                       : 1
Format                                   : AVC
Format/Info                              : Advanced Video Codec
Format profile                           : [email protected]
Format settings                          : CABAC / 4 Ref Frames
Format settings, CABAC                   : Yes
Format settings, RefFrames               : 4 frames
Codec ID                                 : V_MPEG4/ISO/AVC
Duration                                 : 1 h 32 min
Bit rate                                 : 3 000 kb/s
Width                                    : 1 920 pixels
Height                                   : 802 pixels
Display aspect ratio                     : 2.40:1
Frame rate mode                          : Constant
Frame rate                               : 23.976 (24000/1001) FPS
Color space                              : YUV
Chroma subsampling                       : 4:2:0
Bit depth                                : 8 bits
Scan type                                : Progressive
Bits/(Pixel*Frame)                       : 0.081
Stream size                              : 1.86 GiB (79%)
Writing library                          : x264 core 155 r2901 7d0ff22
Default                                  : Yes
Forced                                   : No

Audio
ID                                       : 3
Format                                   : DTS
Format/Info                              : Digital Theater Systems
Codec ID                                 : A_DTS
Duration                                 : 1 h 32 min
Bit rate mode                            : Constant
Bit rate                                 : 756 kb/s
Channel(s)                               : 6 channels
Channel positions                        : Front: L C R, Side: L R, LFE
Sampling rate                            : 48.0 kHz
Frame rate                               : 93.750 FPS (512 SPF)
Bit depth                                : 16 bits
Compression mode                         : Lossy
Stream size                              : 501 MiB (21%)
Language                                 : English
Default                                  : Yes
Forced                                   : No

Text
ID                                       : 2
Format                                   : VobSub
Muxing mode                              : zlib
Codec ID                                 : S_VOBSUB
Codec ID/Info                            : Picture based subtitle format used on DVDs
Duration                                 : 1 h 30 min
Bit rate                                 : 3 822 b/s
Count of elements                        : 1137
Stream size                              : 2.46 MiB (0%)
Language                                 : English
Default                                  : Yes
Forced                                   : No

Menu
00:00:00.000                             : en:00:00:00.000
00:13:33.146                             : en:00:13:33.021
00:18:17.346                             : en:00:18:17.221
00:24:27.007                             : en:00:24:27.007
00:31:56.915                             : en:00:31:56.873
00:40:13.202                             : en:00:40:13.202
00:45:12.126                             : en:00:45:12.001
00:54:22.092                             : en:00:54:22.092
01:01:06.037                             : en:01:01:05.954
01:06:52.300                             : en:01:06:52.175
01:11:53.434                             : en:01:11:53.434
01:17:07.915                             : en:01:17:07.915


 http://pichub.site/image/OTDpk
 http://pichub.site/image/OTEbQ
 http://pichub.site/image/OT7cv
 http://pichub.site/image/OTVvd
 http://pichub.site/image/OTc99
 http://pichub.site/image/OTwSu

Category:Movies > 1080P Bluray
Lang:English  English
Total Size:2.35 GB
Info Hash:7192addda1fee18e478d8f394544b36fa2817a96
Added By:Freaky
Date Added:06-08-2018 12:29:07
Views:100
Hits:0

Download Torrent

Ratings:Not Yet Rated (Log in to rate it)


Tracker:
udp://tracker.coppersurfer.tk:6969/announce


File List: 


Comments

No comments still posted

Powered by 10 Hamsters v2-svn -|- Page Generated In 0.121673 secs.
-|- RSS FEED
Theme By: Nikkbu
Sitemap