[Login] or [Signup]
Login
Username:
Password:
[Signup]
[Recover Account]


Poll


You must be logged in to view polls



Torrent Details For "Avengers Grimm 2 Time Wars 2018 1080p BluRay x264 DTS [MW]"

Avengers Grimm 2 Time Wars 2018 1080p BluRay x264 DTS [MW]

Download this torrent | Magnet Download
Health:
Seeds: 119
Leechers: 345
Completed: 169 
Last Checked: 04-08-2018 13:59:35
External Torrent
Update Stats
Download Magnet


Poster
No poster


Watch-Free-HD     Download

Details
Name:Avengers Grimm 2 Time Wars 2018 1080p BluRay x264 DTS [MW]
Description:

 


General
Format                                   : Matroska
Format version                           : Version 4 / Version 2
File size                                : 2.27 GiB
Duration                                 : 1 h 27 min
Overall bit rate                         : 3 716 kb/s

Video
ID                                       : 1
Format                                   : AVC
Format/Info                              : Advanced Video Codec
Format profile                           : [email protected]
Format settings                          : CABAC / 4 Ref Frames
Format settings, CABAC                   : Yes
Format settings, RefFrames               : 4 frames
Codec ID                                 : V_MPEG4/ISO/AVC
Duration                                 : 1 h 27 min
Bit rate                                 : 3 000 kb/s
Width                                    : 1 920 pixels
Height                                   : 1 080 pixels
Display aspect ratio                     : 16:9
Frame rate mode                          : Constant
Frame rate                               : 23.976 (24000/1001) FPS
Color space                              : YUV
Chroma subsampling                       : 4:2:0
Bit depth                                : 8 bits
Scan type                                : Progressive
Bits/(Pixel*Frame)                       : 0.060
Stream size                              : 1.81 GiB (80%)
Writing library                          : x264 core 155 r2901 7d0ff22
Default                                  : Yes
Forced                                   : No

Audio
ID                                       : 2
Format                                   : DTS
Format/Info                              : Digital Theater Systems
Codec ID                                 : A_DTS
Duration                                 : 1 h 27 min
Bit rate mode                            : Constant
Bit rate                                 : 756 kb/s
Channel(s)                               : 6 channels
Channel positions                        : Front: L C R, Side: L R, LFE
Sampling rate                            : 48.0 kHz
Frame rate                               : 93.750 FPS (512 SPF)
Bit depth                                : 16 bits
Compression mode                         : Lossy
Stream size                              : 473 MiB (20%)
Language                                 : English
Default                                  : No
Forced                                   : No

Text
ID                                       : 3
Format                                   : UTF-8
Codec ID                                 : S_TEXT/UTF8
Codec ID/Info                            : UTF-8 Plain Text
Duration                                 : 1 h 24 min
Bit rate                                 : 55 b/s
Count of elements                        : 1243
Stream size                              : 34.3 KiB (0%)
Language                                 : English
Default                                  : Yes
Forced                                   : No

Menu
00:00:00.000                             : en:00:00:00.000
00:10:00.600                             : en:00:10:00.600
00:20:01.283                             : en:00:20:01.200
00:30:01.925                             : en:00:30:01.800
00:40:02.400                             : en:00:40:02.400
00:50:03.083                             : en:00:50:03.000
01:00:03.600                             : en:01:00:03.600
01:10:04.325                             : en:01:10:04.200
01:20:04.842                             : en:01:20:04.800


 http://pichub.site/image/O9fjg
 http://pichub.site/image/O9MwI
 http://pichub.site/image/O9aT8
 http://pichub.site/image/O9YxX
 http://pichub.site/image/O9OEJ
 http://pichub.site/image/O9Rm5

Category:Movies > 1080P Bluray
Lang:English  English
Total Size:2.27 GB
Info Hash:c16139033e4a92933095dc97b51048f80bbbb18e
Added By:Freaky
Date Added:04-08-2018 13:59:15
Views:235
Hits:13

Download Torrent

Ratings:Not Yet Rated (Log in to rate it)


Tracker:
udp://tracker.coppersurfer.tk:6969/announce


File List: 


Comments

No comments still posted

Powered by 10 Hamsters v2-svn -|- Page Generated In 0.158391 secs.
-|- RSS FEED
Theme By: Nikkbu
Sitemap