[Login] or [Signup]
Login
Username:
Password:
[Signup]
[Recover Account]


Poll


You must be logged in to view polls



Torrent Details For "Operation.Red.Sea.2018.1080p.BluRay.x264-MHD"

Operation.Red.Sea.2018.1080p.BluRay.x264-MHD

Download this torrent | Magnet Download
Health:
Seeds: 0
Leechers: 0
Completed:
Last Checked: 04-08-2018 08:12:15
External Torrent
Update Stats
Download Magnet


Poster


iMDB
Imdb Picture Original Title: Hong hai xing dong
Title: Operation Red Sea
Year: 2018
Runtime: 142 minutes
Votes: 2391
Rating: 7.1/10
Language: Mandarin, Arabic, English
Country: China, Morocco
All Genres: Action, Drama, Thriller, War
Plot Outline: PLA Navy Marine Corps launch a hostage rescue operation in Ihwea and undergo a fierce battle with rebellions and terrorism.


Director: Dante Lam
Writing By: Ji Feng,
Produced By: Zakaria Alaoui,Albert Lee,Candy Leung,Albert Yeung,Dong Yu,
Music: Elliot Leung
Cast:
Yi Zhang as Yang Rui
Johnny Huang as Gu Shun
Hai-Qing as Xia Nan
Jiang Du as Xu Hong
Luxia Jiang as Tong Li
SanĂ¢a Alaoui as Ina
Fang Yin as Li Dong
Yutian Wang as Zhang Tiande
Jiahao Guo as Lu Chen
Henry Prince Mak as Zhuang Yu
Trailers:
Operation Red Sea


Watch-Free-HD     Download

Details
Name:Operation.Red.Sea.2018.1080p.BluRay.x264-MHD
Description:



Quote:

IMDb:
 http://www.imdb.com/title/tt6878882/


Format                      : Matroska
Format version              : Version 4 / Version 2
File size                   : 8.92 GiB
Duration                    : 2 h 18 min
Overall bit rate            : 9 204 kb/s
Encoded date                : UTC 2018-07-30T08:22:33Z
Writing application         : HandBrake 1.1.1 2018061800
Writing library             : Lavf57.7.2

Video
ID                          : 1
Format                      : AVC
Format/Info                 : Advanced Video Codec
Format profile              : [email protected]
Format settings             : CABAC / 4 Ref Frames
Format settings, CABAC      : Yes
Format settings, ReFrames   : 4 frames
Codec ID                    : V_MPEG4/ISO/AVC
Duration                    : 2 h 18 min
Bit rate                    : 8 600 kb/s
Width                       : 1 920 pixels
Height                      : 804 pixels
Display aspect ratio        : 2.40:1
Frame rate mode             : Constant
Frame rate                  : 24.000 FPS
Color space                 : YUV
Chroma subsampling          : 4:2:0
Bit depth                   : 8 bits
Scan type                   : Progressive
Bits/(Pixel*Frame)          : 0.232
Stream size                 : 8.13 GiB (91%)
Writing library             : x264 core 155 r2901 7d0ff22
Encoding settings           : cabac=1 / ref=2 / deblock=1:0:0 / analyse=0x3:0x113 / me=hex / subme=6 / psy=1 / psy_rd=1.00:0.00 / mixed_ref=1 / me_range=16 / chroma_me=1 / trellis=1 / 8x8dct=1 / cqm=0 / deadzone=21,11 / fast_pskip=1 / chroma_qp_offset=-2 / threads=6 / lookahead_threads=1 / sliced_threads=0 / nr=0 / decimate=1 / interlaced=0 / bluray_compat=0 / constrained_intra=0 / bframes=3 / b_pyramid=2 / b_adapt=1 / b_bias=0 / direct=1 / weightb=1 / open_gop=0 / weightp=1 / keyint=240 / keyint_min=24 / scenecut=40 / intra_refresh=0 / rc_lookahead=30 / rc=abr / mbtree=1 / bitrate=8600 / ratetol=1.0 / qcomp=0.60 / qpmin=0 / qpmax=69 / qpstep=4 / vbv_maxrate=25000 / vbv_bufsize=31250 / nal_hrd=none / filler=0 / ip_ratio=1.40 / aq=1:1.00
Default                     : Yes
Forced                      : No
Color range                 : Limited
Color primaries             : BT.709
Transfer characteristics    : BT.709
Matrix coefficients         : BT.709

Audio
ID                          : 2
Format                      : AC-3
Format/Info                 : Audio Coding 3
Codec ID                    : A_AC3
Duration                    : 2 h 18 min
Bit rate mode               : Constant
Bit rate                    : 640 kb/s
Channel(s)                  : 6 channels
Channel positions           : Front: L C R, Side: L R, LFE
Sampling rate               : 48.0 kHz
Frame rate                  : 31.250 FPS (1536 SPF)
Bit depth                   : 16 bits
Compression mode            : Lossy
Stream size                 : 635 MiB (7%)
Title                       : Surround
Service kind                : Complete Main
Default                     : Yes
Forced                      : No

Category:Movies > 1080P Bluray
Lang:Chinese
Total Size:8.92 GB
Info Hash:82e689d7d9fd958be4d43fbdf2dc4c258ad055c6
Added By:TeamBR
Date Added:04-08-2018 08:12:15
Views:33
Hits:0

Download Torrent

Ratings:Not Yet Rated (Log in to rate it)


Tracker:
udp://tracker.leechers-paradise.org:6969/announce


File List: 


Comments

No comments still posted

Powered by 10 Hamsters v2-svn -|- Page Generated In 1.906409 secs.
-|- RSS FEED
Theme By: Nikkbu