[Login] or [Signup]
Login
Username:
Password:
[Signup]
[Recover Account]


Poll


You must be logged in to view polls



Torrent Details For "Sultan The Saviour 2018 Bangali PDvDRip AC3 x264 800MB[HDFilmBoss]"

Sultan The Saviour 2018 Bangali PDvDRip AC3 x264 800MB[HDFilmBoss]

Download this torrent | Magnet Download
Health:
Seeds: 0
Leechers: 0
Completed:
Last Checked: 31-07-2018 15:06:01
External Torrent
Update Stats
Download Magnet


Poster


iMDB
Imdb Picture Title: Sultan: The Saviour
Year: 2018
Runtime: 163 minutes
Votes: 143
Rating: 6.8/10
Language: Bengali
Country: India
All Genres: Thriller
Plot Outline: A man decides to save his sister from the clutches of a deadly Mafia Don.


Director: Raja Chanda
Writing By: Anshuman Pratyush,
Produced By: Jeet,Amit Jumrani,Gopal Madnani,Nishpal Singh,
Music: Savvy Gupta
Cast:
Jeet as RAJA & SULTAN
Mukul Dev as
Bidya Sinha Saha Mim as
Priyanka Sarkar as


Watch-Free-HD     Download

Details
Name:Sultan The Saviour 2018 Bangali PDvDRip AC3 x264 800MB[HDFilmBoss]
Description:
General
Complete name                            : Sultan The Saviour 2018 Bangali PDvDRip AC3 x264 800MB-HDFilmBoss.Net.mp4
Format                                   : MPEG-4
Format profile                           : Base Media
Codec ID                                 : isom (isom/iso2/avc1/mp41)
File size                                : 801 MiB
Duration                                 : 2 h 29 min
Overall bit rate                         : 751 kb/s
Writing application                      : Lavf56.25.101

Video
ID                                       : 1
Format                                   : AVC
Format/Info                              : Advanced Video Codec
Format profile                           : [email protected]
Format settings                          : CABAC / 4 Ref Frames
Format settings, CABAC                   : Yes
Format settings, RefFrames               : 4 frames
Codec ID                                 : avc1
Codec ID/Info                            : Advanced Video Coding
Duration                                 : 2 h 29 min
Bit rate                                 : 616 kb/s
Width                                    : 640 pixels
Height                                   : 360 pixels
Display aspect ratio                     : 16:9
Frame rate mode                          : Constant
Frame rate                               : 30.000 FPS
Color space                              : YUV
Chroma subsampling                       : 4:2:0
Bit depth                                : 8 bits
Scan type                                : Progressive
Bits/(Pixel*Frame)                       : 0.089
Stream size                              : 657 MiB (82%)
Writing library                          : x264 core 142 r2495 6a301b6

Audio
ID                                       : 2
Format                                   : AAC
Format/Info                              : Advanced Audio Codec
Format profile                           : LC
Codec ID                                 : mp4a-40-2
Duration                                 : 2 h 29 min
Bit rate mode                            : Constant
Bit rate                                 : 128 kb/s
Channel(s)                               : 2 channels
Channel positions                        : Front: L R
Sampling rate                            : 44.1 kHz
Frame rate                               : 43.066 FPS (1024 SPF)
Compression mode                         : Lossy
Stream size                              : 137 MiB (17%)
Language                                 : English
Default                                  : Yes
Alternate group                          : 1

[quote][/quote]

http://hdfilmboss.net/



Category:Movies > Bengali
Lang:Bengali  Bengali
Total Size:801.33 MB
Info Hash:8942cbfca297b1e0866932867f6816fb458f956c
Added By:HDFilmBoss
Date Added:31-07-2018 15:06:01
Views:96
Hits:7

Download Torrent

Ratings:Not Yet Rated (Log in to rate it)


Tracker:
UDP://TRACKER.ZER0DAY.TO:1337/ANNOUNCE


File List: 


Comments

No comments still posted

Powered by 10 Hamsters v2-svn -|- Page Generated In 0.304176 secs.
-|- RSS FEED
Theme By: Nikkbu