[Login] or [Signup]
Login
Username:
Password:
[Signup]
[Recover Account]


Poll


You must be logged in to view polls



Torrent Details For "Parmanu – The Story Of Pokhran (2018) BluRay 720p Hindi x264 AAC – LatestHDMovies Exclusive"

Parmanu – The Story Of Pokhran (2018) BluRay 720p Hindi x264 AAC – LatestHDMovies Exclusive

Download this torrent | Magnet Download
Health:
Seeds: 141
Leechers: 131
Completed: 118 
Last Checked: 28-07-2018 00:13:54
External Torrent
Update Stats
Download Magnet


Poster


iMDB
Imdb Picture Title: Parmanu: The Story of Pokhran
Year: 2018
Runtime: 129 minutes
Votes: 121
Rating: 8.9/10
Language: Hindi
Country: India
All Genres: Action, Drama, History, Thriller
Plot Outline: A look at India's first confidential nuclear test series at Pokhran lead by Dr. APJ Abdul Kalam, during the time of PM Atal Bihari Vajpayee's tenure.


Director: Abhishek Sharma
Writing By: Sanyukta Shaikh Chawla,Saiwyn Quadras,Abhishek Sharma,
Produced By: John Abraham,Nishant Pitti,Dharam Soni,
Music: Sandeep Chowta
Cast:
John Abraham as
Diana Penty as
Boman Irani as
Zachary Coffin as Stephen
Aditya Hitkari as
Abhiroy Singh as
Mark Bennington as Daniel
Arush Nand as Prahlad
Yogendra Tikku as
Rohan Khatri as Sardaar Driver


Watch-Free-HD     Download

Details
Name:Parmanu – The Story Of Pokhran (2018) BluRay 720p Hindi x264 AAC – LatestHDMovies Exclusive
Description:




[[SAMPLE]]
 http://oload.stream/f/37o2iLC...estHDMovies.Org-.mp4




DIRECT DOWNLOAD & WATCH ONLINE !
VISIT NOW = http://latesthdmovies.org/par...080p-hindi-x264-aac/



General
Unique ID                   : 75639371046871398542024129069049877761 (0x38E79CEB6E1CD462A2F59CD066F29501)
Complete name               : C:\Users\SHAHID\Documents\Zapya\Video\Parmanu – The Story Of Pokhran (2018) BluRay 720p Hindi x264 AAC – LatestHDMovies.mkv
Format                      : Matroska
Format version              : Version 4 / Version 2
File size                   : 1.05 GiB
Duration                    : 2 h 3 min
Overall bit rate            : 1 210 kb/s
Movie name                  : http://LatestHDMovies.Org
Encoded date                : UTC 2018-07-27 19:37:25
Writing application         : mkvmerge v24.0.0 ('Beyond The Pale') 32-bit
Writing library             : libebml v1.3.6 + libmatroska v1.4.9
Cover                       : Yes
Attachments                 : Cover.jpg

Video
ID                          : 1
Format                      : AVC
Format/Info                 : Advanced Video Codec
Format profile              : [email protected]
Format settings             : CABAC / 5 Ref Frames
Format settings, CABAC      : Yes
Format settings, ReFrames   : 5 frames
Codec ID                    : V_MPEG4/ISO/AVC
Duration                    : 2 h 3 min
Bit rate                    : 1 088 kb/s
Width                       : 1 280 pixels
Height                      : 532 pixels
Display aspect ratio        : 2.40:1
Frame rate mode             : Constant
Frame rate                  : 25.000 FPS
Color space                 : YUV
Chroma subsampling          : 4:2:0
Bit depth                   : 8 bits
Scan type                   : Progressive
Bits/(Pixel*Frame)          : 0.064
Stream size                 : 956 MiB (89%)
Title                       : http://LatestHDMovies.Org
Writing library             : x264 core 148 r2643 5c65704
Encoding settings           : cabac=1 / ref=5 / deblock=1:0:0 / analyse=0x3:0x113 / me=hex / subme=7 / psy=1 / psy_rd=1.00:0.00 / mixed_ref=1 / me_range=16 / chroma_me=1 / trellis=1 / 8x8dct=1 / cqm=0 / deadzone=21,11 / fast_pskip=1 / chroma_qp_offset=-2 / threads=8 / lookahead_threads=8 / sliced_threads=1 / slices=8 / nr=0 / decimate=1 / interlaced=0 / bluray_compat=0 / constrained_intra=0 / bframes=0 / weightp=2 / keyint=250 / keyint_min=25 / scenecut=40 / intra_refresh=0 / rc=abr / mbtree=0 / bitrate=1088 / ratetol=1.0 / qcomp=0.60 / qpmin=0 / qpmax=69 / qpstep=4 / ip_ratio=1.40 / aq=1:1.00
Language                    : Hindi
Default                     : Yes
Forced                      : No

Audio
ID                          : 2
Format                      : AAC
Format/Info                 : Advanced Audio Codec
Format profile              : LC
Codec ID                    : A_AAC-2
Duration                    : 2 h 3 min
Bit rate                    : 128 kb/s
Channel(s)                  : 2 channels
Channel positions           : Front: L R
Sampling rate               : 48.0 kHz
Frame rate                  : 46.875 FPS (1024 SPF)
Compression mode            : Lossy
Delay relative to video     : -43 ms
Stream size                 : 113 MiB (11%)
Title                       : http://LatestHDMovies.Org
Language                    : Hindi
Default                     : Yes
Forced                      : No


 
                   
Category:Movies > Bollywood
Lang:Hindi
Total Size:1.05 GB
Info Hash:8d5bce1453ac7b7fc30e8ee38fbcd38220942d0c
Added By:ShahidHasanzai
Date Added:27-07-2018 20:58:42
Views:82
Hits:17

Download Torrent

Ratings:Not Yet Rated (Log in to rate it)


Tracker:
udp://tracker.coppersurfer.tk:6969/announce


File List: 


Comments

<< Previous      Next >>
1 - 1

[Report] Posted: 27-07-2018 at 21:33:25
djsagarwap



Uploaded: 0.00 B
Downloaded: 0.00 B
Ratio: ---

:(  :(  :(  :(  :(

1 - 1
<< Previous      Next >>


Powered by 10 Hamsters v2-svn -|- Page Generated In 1.711023 secs.
-|- RSS FEED
Theme By: Nikkbu
Sitemap